[Цитировать]

Снайпер: Герой сопротивления (2015) WEB-DLRip - Производство: Россия, ООО "Нью Арт Синема Продакшн"
Жанр: Военный, Драма, Приключения
Режиссер: Арман Геворгян
Продюсер: Глеб Шпригов
Актеры: Гоша Куценко, Денис Бургазлиев, Анна Снаткина, Владимир Гостюхин, Борис Романов, Дирк Мартенс, Юлия Кадушкевич, Георгий Сивохин, Сергей Широчин, Олег Вебер
Описание:
Тяжелый 1941-й год. Немецкие войска продолжают наступление, сжигая целые города и села, оставляя после себя руины и пепелища. Кажется, уже ничто не спасет Советский Союз от поражения, а Красную Армию - от тотального уничтожения оккупантами. В эпицентре этих трагических событий оказываются идейные враги - красноармеец, снайпер Николай Волохов и сын белого офицера Андре Ренье. В других обстоятельствах они могли бы оказаться по разные стороны баррикад - ведь отца Волохова убил белогвардейский офицер. Но сейчас им нечего делить. У них один враг - немцы...

Дата мировой премьеры: 7 мая 2015
Дата премьеры в России: 9 мая 2015
Продолжительность: 01:20:40
Качество видео: WEB-DLRip
Перевод: Оригинал (iTunes)
Субтитры: Отсутствуют
Видео: Xvid, 720x304, ~2032 kbps
Аудио: AC3, 6 ch, 384 kbps
Семпл: Скачать

Mediainfo:

Общее
Полное имя : E:\VidEo\Snajper.Geroj.soprotivlenija.2015.O.WEBDLRip.torrnada.avi
Формат : AVI
Формат/Информация : Audio Video Interleave
Размер файла : 1,37 Гбайт
Продолжительность : 1 ч. 20 м.
Общий поток : 2426 Кбит/сек
Программа кодирования : VirtualDubMod 1.5.10.3 | www.virtualdub-fr.org || (build 2550/release)
Библиотека кодирования : VirtualDubMod build 2550/release
Видео
Идентификатор : 0
Формат : MPEG-4 Visual
Профиль формата : Advanced [email protected]
Параметр BVOP формата : 2
Параметр QPel формата : Нет
Параметр GMC формата : Без точки перехода
Параметр матрицы формата : Default (MPEG)
Идентификатор кодека : XVID
Идентификатор кодека/Подсказка : XviD
Продолжительность : 1 ч. 20 м.
Битрейт : 2032 Кбит/сек
Ширина : 720 пикселей
Высота : 304 пикселя
Соотношение сторон : 2,35:1
Частота кадров : 25,000 кадров/сек
Цветовое пространство : YUV
Субдискретизация насыщенности : 4:2:0
Битовая глубина : 8 бит
Тип развёртки : Прогрессивная
Метод сжатия : С потерями
Бит/(Пиксели*Кадры) : 0.371
Размер потока : 1,14 Гбайт (84%)
Библиотека кодирования : XviD 1.2.1 (UTC 2008-12-04)
Аудио
Идентификатор : 1
Формат : AC-3
Формат/Информация : Audio Coding 3
Расширение режима : CM (complete main)
Параметр Endianness формата : Big
Идентификатор кодека : 2000
Продолжительность : 1 ч. 20 м.
Вид битрейта : Постоянный
Битрейт : 384 Кбит/сек
Каналы : 2 канала
Расположение каналов : Front: L R
Частота : 48,0 КГц
Битовая глубина : 16 бит
Метод сжатия : С потерями
Размер потока : 222 Мбайт (16%)
Выравнивание : Разделение по промежуткам
Продолжительность промежутка : 40 мс. (1,00 видеокадр)
Время предзагрузки промежутка : 500 мс.
Скриншоты:
Не жилим спасибо. Не забываем голосовать за трекер!!!


Показать сообщения:    

Текущее время: 14-Ноя 22:53

Часовой пояс: UTC + 3


Вы не можете начинать темы
Вы не можете отвечать на сообщения
Вы не можете редактировать свои сообщения
Вы не можете удалять свои сообщения
Вы не можете голосовать в опросах
Вы не можете прикреплять файлы к сообщениям
Вы не можете скачивать файлы

!ВНИМАНИЕ!
Сайт не предоставляет электронные версии произведений, а занимается лишь коллекционированием и каталогизацией ссылок, присылаемых и публикуемых на форуме нашими читателями. Если вы являетесь правообладателем какого-либо представленного материала и не желаете, чтобы ссылка на него находилась в нашем каталоге, свяжитесь с нами, и мы незамедлительно удалим ее. Файлы для обмена на трекере предоставлены пользователями сайта, и администрация не несет ответственности за их содержание. Просьба не заливать файлы, защищенные авторскими правами, а также файлы нелегального содержания!