[Цитировать]

Subwave - Phobos

Жанр: Drum'n'Bass, Techno, Acid House, Future Jazz, Downtempo
Носитель: CD
Страна-производитель диска (релиза): Russia
Год издания: 2001
Издатель (лейбл): Мистерия Звука
Номер по каталогу: Subwave 001CD
Аудиокодек: FLAC (*.flac)
Тип рипа: image+.cue
Битрейт аудио: lossless
Продолжительность: 01:11:21
Источник (релизер): Cобственный CD
Наличие сканов в содержимом раздачи: Да
Треклист:
01. Digital Symphony
02. Phobos
03. Demos
04. Metro
05. Evolution
06. Tribal Freak
07. X_Stazy
08. Relaxxx
09. Dubs For Clubs
10. Nectar

Содержание индексной карты (.CUE)

REM GENRE "Drum & Bass"
REM DATE 2001
REM DISCID 8910B80A
REM COMMENT "ExactAudioCopy v1.0b3"
PERFORMER "Subwave"
TITLE "Phobos"
FILE "Subwave - Phobos.flac" WAVE
TRACK 01 AUDIO
TITLE "Digital Symphony"
PERFORMER "Subwave"
FLAGS DCP
INDEX 01 00:00:00
TRACK 02 AUDIO
TITLE "Phobos"
PERFORMER "Subwave"
FLAGS DCP
INDEX 00 08:09:35
INDEX 01 08:11:35
TRACK 03 AUDIO
TITLE "Demos"
PERFORMER "Subwave"
FLAGS DCP
INDEX 00 13:58:12
INDEX 01 14:00:12
TRACK 04 AUDIO
TITLE "Metro"
PERFORMER "Subwave"
FLAGS DCP
INDEX 00 20:38:30
INDEX 01 20:40:30
TRACK 05 AUDIO
TITLE "Evolution"
PERFORMER "Subwave"
FLAGS DCP
INDEX 00 25:57:57
INDEX 01 25:59:57
TRACK 06 AUDIO
TITLE "Tribal Freak"
PERFORMER "Subwave"
FLAGS DCP
INDEX 00 34:26:45
INDEX 01 34:28:45
TRACK 07 AUDIO
TITLE "X-Stazy"
PERFORMER "Subwave"
FLAGS DCP
INDEX 00 42:44:26
INDEX 01 42:46:26
TRACK 08 AUDIO
TITLE "Relaxxx"
PERFORMER "Subwave"
FLAGS DCP
INDEX 00 51:30:17
INDEX 01 51:32:17
TRACK 09 AUDIO
TITLE "Dubs for clubs"
PERFORMER "Subwave"
FLAGS DCP
INDEX 00 58:02:37
INDEX 01 58:04:37
TRACK 10 AUDIO
TITLE "Nectar"
PERFORMER "Subwave"
FLAGS DCP
INDEX 00 62:18:18
INDEX 01 62:20:18

Covers Discogs







Показать сообщения:    

Текущее время: 15-Ноя 09:32

Часовой пояс: UTC + 3


Вы не можете начинать темы
Вы не можете отвечать на сообщения
Вы не можете редактировать свои сообщения
Вы не можете удалять свои сообщения
Вы не можете голосовать в опросах
Вы не можете прикреплять файлы к сообщениям
Вы не можете скачивать файлы

!ВНИМАНИЕ!
Сайт не предоставляет электронные версии произведений, а занимается лишь коллекционированием и каталогизацией ссылок, присылаемых и публикуемых на форуме нашими читателями. Если вы являетесь правообладателем какого-либо представленного материала и не желаете, чтобы ссылка на него находилась в нашем каталоге, свяжитесь с нами, и мы незамедлительно удалим ее. Файлы для обмена на трекере предоставлены пользователями сайта, и администрация не несет ответственности за их содержание. Просьба не заливать файлы, защищенные авторскими правами, а также файлы нелегального содержания!