[Цитировать]

Radiorama - Greatest Hits & Remixes (2015) 2CD- Год: 2015
Жанр: Italo Disco, Euro House
Лейбл: ZYX Music
Каталог #: ZYX 21062-2
Продолжительность: 02:23:25
Кодек: FLAC
Битрейт: Lossless
Тип рипа: tracks
CD1
Треклист:
01. Desire (Vocal) [3:52]
02. Aliens (Album Version) [4:12]
03. Vampires (Short Version) [4:22]
04. Chance To Desire (Album Version) [4:08]
05. Hey Hey (Album Version) [4:36]
06. So I Know (Album Version) [4:46]
07. Fire (7 Inch Edit) [3:54]
08. Yeti (Radio Version) [3:55]
09. ABCD (Edit) [4:04]
10. Bad Girls (Edit) [4:21]
11. I Don't Wanna Lose You (Album Version) [4:57]
12. Heartbreaker (Album Version) [4:21]
13. Bad Boy You (Album Version) [4:06]
14. Bye Bye Baby (Album Version) [4:25]
15. Daddy Daddy (Album Version) [3:03]
16. Manitu (Album Version) [3:46]
Продолжительность - 01:06:48

CD2:

Треклист
01. Chance To Desire (Vocal Version) [7:54]
02. Vampires (Swedish Remix) [6:25]
03. Aliens (Swedish Remix) [5:41]
04. Yeti (Special Remix) [7:27]
05. Flight Of Fantasy (Remix '89) [5:15]
06. ABCD (Maxi Version) [7:09]
07. Fire (Extended Swedish Remix) [6:33]
08. Desire (Remix) [5:58]
09. Aliens (Vocal Version) [5:47]
10. Chance To Desire (Special Remix) [7:11]
11. Multimix Of Radiorama [11:17]
Продолжительность - 01:16:37

Отчёт auCDtect Task manager:

-----------------------
DON'T MODIFY THIS FILE
-----------------------
PERFORMER: auCDtect Task Manager, ver. 1.6.0 RC1 build 1.6.0.1
Copyright (c) 2008-2010 y-soft. All rights reserved
http://y-soft.org
ANALYZER: auCDtect: CD records authenticity detector, version 0.8.2
Copyright (c) 2004 Oleg Berngardt. All rights reserved.
Copyright (c) 2004 Alexander Djourik. All rights reserved.
FILE: 2-11. Multimix Of Radiorama.flac
  Size: 83816366 Hash: 635F85C38B32EDCF7AC44D7E30E400D8 Accuracy: -m0
  Conclusion: CDDA 100%
  Signature: 52402F5440E7424F79D0147EE56A9B08504CEF07
FILE: 2-10. Chance To Desire (Special Remix).flac
  Size: 53012053 Hash: 5AB44782448279CA5E4CC44553D4170C Accuracy: -m0
  Conclusion: CDDA 100%
  Signature: 5683E598384ADAFA09E3B732DEF12BD5F9AD06B2
FILE: 2-09. Aliens (Vocal Version).flac
  Size: 42484244 Hash: 86E503D4BC42BB6F46174FEABE359878 Accuracy: -m0
  Conclusion: CDDA 99%
  Signature: CBB5B77289531E6F0B795B3E65D33FF0276B9A64
FILE: 2-08. Desire (Remix).flac
  Size: 46085136 Hash: 63CF1870AD1646A7CC9D96258D2BDD22 Accuracy: -m0
  Conclusion: CDDA 100%
  Signature: 1E8279255B9CBC71DCBC3950205F976C8CE053A2
FILE: 2-07. Fire (Extended Swedish Remix).flac
  Size: 47313112 Hash: CB1E5F5239F2675F4DEDC1C4CA66A286 Accuracy: -m0
  Conclusion: CDDA 99%
  Signature: B6EF6B215B50FD9C3224101668CDD9A4DFD8779A
FILE: 2-06. ABCD (Maxi Version).flac
  Size: 52444675 Hash: 81FF5B96E3D7D99064465432E19F9C80 Accuracy: -m0
  Conclusion: CDDA 100%
  Signature: EA7076F1EF6159F2EC8AE298511CB23E9F0DE122
FILE: 2-05. Flight Of Fantasy (Remix '89).flac
  Size: 39809141 Hash: 2EFF07AC2C912B7BEEFBE97195BBAF49 Accuracy: -m0
  Conclusion: CDDA 99%
  Signature: E0772926114582F951394B99495DBBCE79AF20F3
FILE: 2-04. Yeti (Special Remix).flac
  Size: 57158819 Hash: B7AF11E1C57377FF2860DED730D9A308 Accuracy: -m0
  Conclusion: CDDA 100%
  Signature: C7D9BEF80FBFBF8A0AC7F3913F68E6EFBB3BCD07
FILE: 2-03. Aliens (Swedish Remix).flac
  Size: 41674503 Hash: C7E75DAFF6A34F5EF9B0032F80A722CE Accuracy: -m0
  Conclusion: CDDA 100%
  Signature: 17EBB93748DA740C6C4D3C8CDCC1376E7D9B4424
FILE: 2-02. Vampires (Swedish Remix).flac
  Size: 49733786 Hash: B79E61C153FD1483934A5ED7322A48F2 Accuracy: -m0
  Conclusion: CDDA 100%
  Signature: 39C836AE2DC533274FB9E66A878A0FA556BFE312
FILE: 2-01. Chance To Desire (Vocal Version).flac
  Size: 59931361 Hash: 1769D818E938D059A793CA93304EC06F Accuracy: -m0
  Conclusion: CDDA 100%
  Signature: DF65FA5A628DEE2A098EFA289126C9BE68E4BCE0
FILE: 1-16. Manitu (Album Version).flac
  Size: 28497283 Hash: 9C3300D13CE9E63CFA48E78AEC9EFFB9 Accuracy: -m0
  Conclusion: CDDA 100%
  Signature: D6C1414DF5AB38B38354F044037111494D1A244F
FILE: 1-15. Daddy Daddy (Album Version).flac
  Size: 23695924 Hash: 853DFE55EF40F7D4FB00F85E4B8B03E0 Accuracy: -m0
  Conclusion: CDDA 100%
  Signature: F80244A4EAD7B728F36819CA774293FF38641D51
FILE: 1-14. Bye Bye Baby (Album Version).flac
  Size: 34655635 Hash: D7DDFC2FB7ADDCB25BFBCE1D14547434 Accuracy: -m0
  Conclusion: CDDA 100%
  Signature: 0096822588EFB31013B50E6AE27AFEB1CD3582A0
FILE: 1-13. Bad Boy You (Album Version).flac
  Size: 32242430 Hash: D5EC63D303669854DB531C7AC2F5BE96 Accuracy: -m0
  Conclusion: CDDA 100%
  Signature: 63D55AEA109D6061AD100C586E9D435F1F60ACAE
FILE: 1-12. Heartbreaker (Album Version).flac
  Size: 34339457 Hash: F388603F7273047D3FB18D373CF43EB8 Accuracy: -m0
  Conclusion: CDDA 100%
  Signature: 5014D1F7DCD9B2401606F1BE6AEBEFF39C48A930
FILE: 1-11. I Don't Wanna Lose You (Album Version).flac
  Size: 37190704 Hash: F544DC4F3E06945D38FE3BECCCC6E1A6 Accuracy: -m0
  Conclusion: CDDA 100%
  Signature: 2351F0A0E0BD7DBE8A84F60B878F7DC85349331B
FILE: 1-10. Bad Girls (Edit).flac
  Size: 33854823 Hash: CD62FDECB9EF19800E950DEE67AFD38B Accuracy: -m0
  Conclusion: CDDA 100%
  Signature: E48DBBB0DFFF9A8FC7346B2F9150E3D58D06C6CC
FILE: 1-09. ABCD (Edit).flac
  Size: 31479779 Hash: E7BF319161F2B15F486120C3AC636B94 Accuracy: -m0
  Conclusion: CDDA 100%
  Signature: 5A1FC40004327F376151E6407C8653D87959912A
FILE: 1-08. Yeti (Radio Version).flac
  Size: 29763096 Hash: 257A601C73EF291401212A0DA7E2A648 Accuracy: -m0
  Conclusion: CDDA 100%
  Signature: 0B3933B782F25CA3E5601CDB98600AFFBE770D34
FILE: 1-07. Fire (7 Inch Edit).flac
  Size: 29305950 Hash: B180C632FCA9CA7D6874B17E8DCF23DE Accuracy: -m0
  Conclusion: CDDA 100%
  Signature: 1CD940771391E2F414EC3ED325A5E9491A4DD29C
FILE: 1-06. So I Know (Album Version).flac
  Size: 36004570 Hash: AF653755E082F88D657801D000E21627 Accuracy: -m0
  Conclusion: CDDA 100%
  Signature: 13574C351FB764A2C436BBCD7DFEDB139A9C8094
FILE: 1-05. Hey Hey (Album Version).flac
  Size: 33892725 Hash: D082F5AE828F5AC25D81EBCC447BDB76 Accuracy: -m0
  Conclusion: CDDA 100%
  Signature: B08FBC11135020CAED8BAC81D3ABBA40115AF3F7
FILE: 1-04. Chance To Desire (Album Version).flac
  Size: 29838416 Hash: 8F937FD681A51BAF14BEE15503EDBA66 Accuracy: -m0
  Conclusion: CDDA 100%
  Signature: E7653D43F29F93FEC7D0BB7AEDE73001BD4D9D75
FILE: 1-03. Vampires (Short Version).flac
  Size: 32649006 Hash: D130C8E452C6695ABAC2682F441002C9 Accuracy: -m0
  Conclusion: CDDA 100%
  Signature: 32F7C380876226725D9245449CFC19D7708BBBE6
FILE: 1-02. Aliens (Album Version).flac
  Size: 31190442 Hash: CD82B96345DE0F37C11268EA59A056BD Accuracy: -m0
  Conclusion: CDDA 100%
  Signature: FE856CA981C53BA7B2AA094B263F00B76BDF416A
FILE: 1-01. Desire (Vocal).flac
  Size: 30186074 Hash: F7C609164392E8A9EEA603F8D08BC189 Accuracy: -m0
  Conclusion: CDDA 100%
  Signature: C9BF11498DE6828B76DC78AB15AC866D979689F0

Dynamic Range Meter:

foobar2000 1.2.8 / Dynamic Range Meter 1.1.1
log date: 2015-06-21 20:40:41
--------------------------------------------------------------------------------
Analyzed: Radiorama / Greatest Hits & Remixes
--------------------------------------------------------------------------------
DR         Peak         RMS     Duration Track
--------------------------------------------------------------------------------
DR9       -0.30 dB    -9.94 dB      3:52 01-Desire (Vocal)
DR9       -0.30 dB    -9.72 dB      4:12 02-Aliens (Album Version)
DR9       -0.30 dB   -10.81 dB      4:22 03-Vampires (Short Version)
DR9       -0.30 dB   -10.31 dB      4:08 04-Chance To Desire (Album Version)
DR9       -0.30 dB   -10.33 dB      4:36 05-Hey Hey (Album Version)
DR9       -0.30 dB    -9.86 dB      4:46 06-So I Know (Album Version)
DR8       -0.30 dB    -9.76 dB      3:54 07-Fire (7 Inch Edit)
DR9       -0.30 dB   -10.22 dB      3:55 08-Yeti (Radio Version)
DR9       -0.30 dB    -9.72 dB      4:04 09-ABCD (Edit)
DR9       -0.30 dB    -9.63 dB      4:21 10-Bad Girls (Edit)
DR9       -0.30 dB   -10.39 dB      4:57 11-I Don't Wanna Lose You (Album Version)
DR9       -0.30 dB    -9.92 dB      4:21 12-Heartbreaker (Album Version)
DR9       -0.30 dB   -10.28 dB      4:06 13-Bad Boy You (Album Version)
DR9       -0.30 dB    -9.82 dB      4:25 14-Bye Bye Baby (Album Version)
DR9       -0.30 dB   -10.14 dB      3:03 15-Daddy Daddy (Album Version)
DR9       -0.30 dB   -10.18 dB      3:46 16-Manitu (Album Version)
DR9       -0.30 dB    -9.87 dB      7:54 01-Chance To Desire (Vocal Version)
DR9       -0.30 dB    -9.73 dB      6:25 02-Vampires (Swedish Remix)
DR8       -0.30 dB    -9.40 dB      5:41 03-Aliens (Swedish Remix)
DR8       -0.30 dB    -9.45 dB      7:27 04-Yeti (Special Remix)
DR9       -0.30 dB    -9.98 dB      5:15 05-Flight Of Fantasy (Remix '89)
DR8       -0.30 dB    -9.04 dB      7:09 06-ABCD (Maxi Version)
DR9       -0.30 dB   -11.45 dB      6:33 07-Fire (Extended Swedish Remix)
DR9       -0.30 dB    -9.84 dB      5:58 08-Desire (Remix)
DR8       -0.30 dB    -9.48 dB      5:47 09-Aliens (Vocal Version)
DR8       -0.30 dB    -9.69 dB      7:11 10-Chance To Desire (Special Remix)
DR8       -0.30 dB    -9.30 dB     11:17 11-Multimix Of Radiorama
--------------------------------------------------------------------------------
Number of tracks:  27
Official DR value: DR9
Samplerate:        44100 Hz
Channels:          2
Bits per sample:   16
Bitrate:           988 kbps
Codec:             FLAC
================================================================================
-Не жилим спасибо. Не забываем голосовать за трекер!!!

Топик был перенесен из форума Disco, Italo-Disco, Hi-NRG в форум Eurodance, Technopop, Disco (lossless)
Magnat


Показать сообщения:    

Текущее время: 22-Окт 03:51

Часовой пояс: UTC + 3


Вы не можете начинать темы
Вы не можете отвечать на сообщения
Вы не можете редактировать свои сообщения
Вы не можете удалять свои сообщения
Вы не можете голосовать в опросах
Вы не можете прикреплять файлы к сообщениям
Вы не можете скачивать файлы

!ВНИМАНИЕ!
Сайт не предоставляет электронные версии произведений, а занимается лишь коллекционированием и каталогизацией ссылок, присылаемых и публикуемых на форуме нашими читателями. Если вы являетесь правообладателем какого-либо представленного материала и не желаете, чтобы ссылка на него находилась в нашем каталоге, свяжитесь с нами, и мы незамедлительно удалим ее. Файлы для обмена на трекере предоставлены пользователями сайта, и администрация не несет ответственности за их содержание. Просьба не заливать файлы, защищенные авторскими правами, а также файлы нелегального содержания!