[Цитировать]

Fancy - Greatest Hits (2004) - Год: 2004
Жанр: Euro-Disco
Издатель: Zyx Music - SIS 1084-2
Продолжительность: 01:10:16
Кодек: FLAC
Битрейт: Lossless
Тип рипа: image + .cue+covers
Треклист:
01. Dragostea Din Tei [03:32]
02. A Voice In The Dark [04:00]
03. Fools Cry [03:15]
04. Pretty Woman [02:54]
05. Sail Away [03:42]
06. Why On Why [03:37]
07. Locomotion [02:39]
08. Na Na Na Na Hey Hey Hey Kiss Him Goodbye [04:30]
09. Slice Me Nice / S.L.I.C.E. [04:00]
10. When Guardian Angels...Rap [05:27]
11. Flames Of Love / Love Flames [03:52]
12. Love In Japan [03:29]
13. Soul For Sale [04:03]
14. No More Sin [02:59]
15. Cool Jerk [03:29]
16. Promised Land [03:54]
17. It's The Same Old Song [03:16]
18. Die For You [03:15]
19. Wear My Ring Around Your Neck [02:13]
20. All My Loving [01:58]

Отчёт ЕАС:

Exact Audio Copy V1.0 beta 3 from 29. August 2011
Отчёт EAC об извлечении, выполненном 11. апреля 2014, 4:00
Fancy / Greatest Hits
Дисковод: ASUS    DRW-2014S1T   Adapter: 7  ID: 0
Режим чтения                 : Достоверность
Использование точного потока : Да
Отключение кэша аудио        : Да
Использование указателей C2  : Нет
Коррекция смещения при чтении                     : 6
Способность читать области Lead-in и Lead-out     : Нет
Заполнение пропущенных сэмплов тишиной            : Да
Удаление блоков с тишиной в начале и конце        : Нет
При вычислениях CRC использовались нулевые сэмплы : Да
Интерфейс                                         : Установленный внешний ASPI-интерфейс
Выходной формат : Внутренние WAV-операции
Формат сэмплов  : 44.100 Гц; 16 бит; стерео
TOC извлечённого CD
     Трек |   Старт  | Длительность | Начальный сектор | Конечный сектор
    ---------------------------------------------------------------------
       1  |  0:00.00 |    3:32.74   |           0      |      15973
       2  |  3:32.74 |    4:00.32   |       15974      |      34005
       3  |  7:33.31 |    3:15.74   |       34006      |      48704
       4  | 10:49.30 |    2:54.15   |       48705      |      61769
       5  | 13:43.45 |    3:42.69   |       61770      |      78488
       6  | 17:26.39 |    3:37.24   |       78489      |      94787
       7  | 21:03.63 |    2:39.58   |       94788      |     106770
       8  | 23:43.46 |    4:30.17   |      106771      |     127037
       9  | 28:13.63 |    4:00.10   |      127038      |     145047
      10  | 32:13.73 |    5:27.36   |      145048      |     169608
      11  | 37:41.34 |    3:52.55   |      169609      |     187063
      12  | 41:34.14 |    3:29.44   |      187064      |     202782
      13  | 45:03.58 |    4:03.51   |      202783      |     221058
      14  | 49:07.34 |    2:59.58   |      221059      |     234541
      15  | 52:07.17 |    3:29.59   |      234542      |     250275
      16  | 55:37.01 |    3:54.61   |      250276      |     267886
      17  | 59:31.62 |    3:16.30   |      267887      |     282616
      18  | 62:48.17 |    3:15.55   |      282617      |     297296
      19  | 66:03.72 |    2:13.31   |      297297      |     307302
      20  | 68:17.28 |    1:58.44   |      307303      |     316196
Характеристики диапазона извлечения и сообщения об ошибках
Выбранный диапазон
     Имя файла Z:\Temp\Fancy - Greatest Hits.wav
     Пиковый уровень 98.9 %
     Скорость извлечения 9.4 X
     Качество диапазона 100.0 %
     CRC теста C148909F
     CRC копии C148909F
     Копирование... OK
Ошибок не произошло
AccurateRip: сводка
Трек  1  : извлечено точно (доверие 2)  [5E796BB9]  (AR v1)
Трек  2  : извлечено точно (доверие 2)  [E6796C2E]  (AR v1)
Трек  3  : извлечено точно (доверие 2)  [6B052A50]  (AR v1)
Трек  4  : извлечено точно (доверие 2)  [E8ADAE55]  (AR v1)
Трек  5  : извлечено точно (доверие 2)  [07C0672C]  (AR v1)
Трек  6  : извлечено точно (доверие 2)  [FD58E612]  (AR v1)
Трек  7  : извлечено точно (доверие 2)  [F1F79B25]  (AR v1)
Трек  8  : извлечено точно (доверие 2)  [A385F47E]  (AR v1)
Трек  9  : извлечено точно (доверие 2)  [339D6526]  (AR v1)
Трек 10  : извлечено точно (доверие 2)  [06593D0C]  (AR v1)
Трек 11  : извлечено точно (доверие 1)  [372504E4]  (AR v1)
Трек 12  : извлечено точно (доверие 1)  [80762739]  (AR v1)
Трек 13  : извлечено точно (доверие 1)  [E8B5158D]  (AR v1)
Трек 14  : извлечено точно (доверие 2)  [8838F773]  (AR v1)
Трек 15  : извлечено точно (доверие 2)  [020B35DD]  (AR v1)
Трек 16  : извлечено точно (доверие 2)  [A09BDD0A]  (AR v1)
Трек 17  : извлечено точно (доверие 2)  [908CBD92]  (AR v1)
Трек 18  : извлечено точно (доверие 2)  [A5B95B83]  (AR v1)
Трек 19  : извлечено точно (доверие 2)  [174E1864]  (AR v1)
Трек 20  : извлечено точно (доверие 2)  [737AB5A3]  (AR v1)
Все треки извлечены точно
Конец отчёта
---- CUETools DB Plugin V2.1.3
[CTDB TOCID: g29RCT4p0wivV3MoGe5Wl97XBko-] found, Submit result: g29RCT4p0wivV3MoGe5Wl97XBko- has been confirmed
[a3c0313c] (2/2) Accurately ripped
==== Контрольная сумма отчёта 96BD0FD0EEBDF11B2CA4BC61C226D921BB90B89A121CB0590E8E303E6650969A ====

Отчёт auCDtect Task manager:

-----------------------
DON'T MODIFY THIS FILE
-----------------------
PERFORMER: auCDtect Task Manager, ver. 1.6.0 RC1 build 1.6.0.1
Copyright (c) 2008-2010 y-soft. All rights reserved
http://y-soft.org
ANALYZER: auCDtect: CD records authenticity detector, version 0.8.2
Copyright (c) 2004 Oleg Berngardt. All rights reserved.
Copyright (c) 2004 Alexander Djourik. All rights reserved.
FILE: Fancy - Greatest Hits.flac
  Size: 534617412 Hash: ED55326457DFC5BD3B63101881F89791 Accuracy: -m0
  Conclusion: CDDA 100%
  Signature: 28B660A70A546EE508DDB1D64E282406B6FD510B

Топик был перенесен из форума Disco, Italo-Disco, Hi-NRG в форум Eurodance, Technopop, Disco (lossless)
Magnat


Показать сообщения:    

Текущее время: 21-Июн 00:00

Часовой пояс: UTC + 3


Вы не можете начинать темы
Вы не можете отвечать на сообщения
Вы не можете редактировать свои сообщения
Вы не можете удалять свои сообщения
Вы не можете голосовать в опросах
Вы не можете прикреплять файлы к сообщениям
Вы не можете скачивать файлы

!ВНИМАНИЕ!
Сайт не предоставляет электронные версии произведений, а занимается лишь коллекционированием и каталогизацией ссылок, присылаемых и публикуемых на форуме нашими читателями. Если вы являетесь правообладателем какого-либо представленного материала и не желаете, чтобы ссылка на него находилась в нашем каталоге, свяжитесь с нами, и мы незамедлительно удалим ее. Файлы для обмена на трекере предоставлены пользователями сайта, и администрация не несет ответственности за их содержание. Просьба не заливать файлы, защищенные авторскими правами, а также файлы нелегального содержания!