[Цитировать]

Формат: FLAC, (tracks + .cue), lossless
Год выпуска: 1990
Страна: Canada
Жанр: Pop, Disco
Продолжительность: 00:39:30
Описание:
01. Melanie with The Edwin Hawkins' Singers: Lay Down (Candles In the Rain) (4:01)
02. Alive & Kicking: Tighter, Tighter (2:46)
03. Mungo Jerry: In the Summertime (3:34)
04. Hotlegs: Neanderthal Man (4:21)
05. Sugarloaf: Green-Eyed Lady (3:41)
06. R. Dean Taylor: Indiana Wants Me (3:41)
07. The Partridge Family: I Think I Love You (2:55)
08. Bobby Bloom: Montego Bay (2:59)
09. Brain Hyland: Gypsy Woman (2:37)
10. Jerry Reed: Amos Moses (2:22)
11. Bobby Sherman: Julie, Do Ya Love Me (2:56)
12. Punch: Fallin' Lady (3:37)
Доп. информация:

eac

Exact Audio Copy V1.0 beta 3 from 29. August 2011
EAC extraction logfile from 1. March 2014, 22:57
Various Artists / Super Hits of the '70s: Have a Nice Day, Vol. 3
Used drive : HL-DT-STBD-RE WH14NS40 Adapter: 0 ID: 0
Read mode : Secure
Utilize accurate stream : Yes
Defeat audio cache : Yes
Make use of C2 pointers : No
Read offset correction : 6
Overread into Lead-In and Lead-Out : No
Fill up missing offset samples with silence : Yes
Delete leading and trailing silent blocks : No
Null samples used in CRC calculations : Yes
Used interface : Native Win32 interface for Win NT & 2000
Gap handling : Appended to previous track
Used output format : User Defined Encoder
Selected bitrate : 1024 kBit/s
Quality : High
Add ID3 tag : No
Command line compressor : C:\Program Files (x86)\Exact Audio Copy\Flac\flac.exe
Additional command line options : -8 -V -T "ARTIST=%artist%" -T "TITLE=%title%" -T "ALBUM=%albumtitle%" -T "DATE=%year%" -T "TRACKNUMBER=%tracknr%" -T "GENRE=%genre%" -T "PERFORMER=%albuminterpret%" -T "COMPOSER=%composer%" %haslyrics%--tag-from-file=LYRICS="%lyricsfile%"%haslyrics% -T "ALBUMARTIST=%albumartist%" -T "DISCNUMBER=%cdnumber%" -T "TOTALDISCS=%totalcds%" -T "TOTALTRACKS=%numtracks%" -T "COMMENT=%comment%" %source% -o %dest%
TOC of the extracted CD
Track | Start | Length | Start sector | End sector
---------------------------------------------------------
1 | 0:00.33 | 4:01.35 | 33 | 18142
2 | 4:01.68 | 2:46.25 | 18143 | 30617
3 | 6:48.18 | 3:33.52 | 30618 | 46644
4 | 10:21.70 | 4:21.15 | 46645 | 66234
5 | 14:43.10 | 3:40.45 | 66235 | 82779
6 | 18:23.55 | 3:41.00 | 82780 | 99354
7 | 22:04.55 | 2:55.05 | 99355 | 112484
8 | 24:59.60 | 2:59.03 | 112485 | 125912
9 | 27:58.63 | 2:36.47 | 125913 | 137659
10 | 30:35.35 | 2:22.20 | 137660 | 148329
11 | 32:57.55 | 2:56.05 | 148330 | 161534
12 | 35:53.60 | 3:37.30 | 161535 | 177839
Track 1
Filename C:\EAC Rips\Various Artists - Super Hits of the '70s - Have a Nice Day, Vol. 3 (1990) [FLAC]\01 - Melanie - Lay Down (Candles in the Rain).wav
Pre-gap length 0:00:02.44
Peak level 93.4 %
Extraction speed 1.6 X
Track quality 100.0 %
Test CRC 5751427B
Copy CRC 5751427B
Accurately ripped (confidence 10) [EAE02723] (AR v2)
Copy OK
Track 2
Filename C:\EAC Rips\Various Artists - Super Hits of the '70s - Have a Nice Day, Vol. 3 (1990) [FLAC]\02 - Alive 'N Kickin' - Tighter, Tighter.wav
Pre-gap length 0:00:01.90
Peak level 100.0 %
Extraction speed 1.0 X
Track quality 99.9 %
Test CRC 7A0A82EC
Copy CRC 7A0A82EC
Accurately ripped (confidence 10) [E51DF5C6] (AR v2)
Copy OK
Track 3
Filename C:\EAC Rips\Various Artists - Super Hits of the '70s - Have a Nice Day, Vol. 3 (1990) [FLAC]\03 - Mungo Jerry - In the Summertime.wav
Pre-gap length 0:00:03.66
Peak level 100.0 %
Extraction speed 1.2 X
Track quality 100.0 %
Test CRC 965BBFBD
Copy CRC 965BBFBD
Accurately ripped (confidence 10) [BAC155B4] (AR v2)
Copy OK
Track 4
Filename C:\EAC Rips\Various Artists - Super Hits of the '70s - Have a Nice Day, Vol. 3 (1990) [FLAC]\04 - Hotlegs - Neanderthal Man.wav
Pre-gap length 0:00:02.69
Peak level 100.0 %
Extraction speed 1.3 X
Track quality 100.0 %
Test CRC 03F8D199
Copy CRC 03F8D199
Accurately ripped (confidence 10) [478C3931] (AR v2)
Copy OK
Track 5
Filename C:\EAC Rips\Various Artists - Super Hits of the '70s - Have a Nice Day, Vol. 3 (1990) [FLAC]\05 - Sugarloaf - Green-Eyed Lady.wav
Pre-gap length 0:00:02.93
Peak level 99.9 %
Extraction speed 1.4 X
Track quality 100.0 %
Test CRC 454971B9
Copy CRC 454971B9
Accurately ripped (confidence 10) [DAF2DF91] (AR v2)
Copy OK
Track 6
Filename C:\EAC Rips\Various Artists - Super Hits of the '70s - Have a Nice Day, Vol. 3 (1990) [FLAC]\06 - R. Dean Taylor - Indiana Wants Me.wav
Pre-gap length 0:00:01.76
Peak level 100.0 %
Extraction speed 1.5 X
Track quality 100.0 %
Test CRC 82C8310F
Copy CRC 82C8310F
Accurately ripped (confidence 10) [C91717AE] (AR v2)
Copy OK
Track 7
Filename C:\EAC Rips\Various Artists - Super Hits of the '70s - Have a Nice Day, Vol. 3 (1990) [FLAC]\07 - The Patridge Family - I Think I Love You.wav
Pre-gap length 0:00:01.02
Peak level 100.0 %
Extraction speed 1.5 X
Track quality 100.0 %
Test CRC 5B661BB7
Copy CRC 5B661BB7
Accurately ripped (confidence 10) [4DD7DE00] (AR v2)
Copy OK
Track 8
Filename C:\EAC Rips\Various Artists - Super Hits of the '70s - Have a Nice Day, Vol. 3 (1990) [FLAC]\08 - Bobby Bloom - Montego Bay.wav
Pre-gap length 0:00:03.49
Peak level 100.0 %
Extraction speed 1.5 X
Track quality 100.0 %
Test CRC E67EA817
Copy CRC E67EA817
Accurately ripped (confidence 10) [C2B0133F] (AR v2)
Copy OK
Track 9
Filename C:\EAC Rips\Various Artists - Super Hits of the '70s - Have a Nice Day, Vol. 3 (1990) [FLAC]\09 - Brian Hyland - Gypsy Woman.wav
Pre-gap length 0:00:02.84
Peak level 95.8 %
Extraction speed 1.5 X
Track quality 100.0 %
Test CRC B1C1BD3F
Copy CRC B1C1BD3F
Accurately ripped (confidence 10) [7AB33E13] (AR v2)
Copy OK
Track 10
Filename C:\EAC Rips\Various Artists - Super Hits of the '70s - Have a Nice Day, Vol. 3 (1990) [FLAC]\10 - Jerry Reed - Amos Moses.wav
Pre-gap length 0:00:02.16
Peak level 100.0 %
Extraction speed 1.5 X
Track quality 100.0 %
Test CRC 992E70B2
Copy CRC 992E70B2
Accurately ripped (confidence 10) [6CDCCBD4] (AR v2)
Copy OK
Track 11
Filename C:\EAC Rips\Various Artists - Super Hits of the '70s - Have a Nice Day, Vol. 3 (1990) [FLAC]\11 - Bobby Sherman - Julie, Do Ya Love Me.wav
Pre-gap length 0:00:02.56
Peak level 93.8 %
Extraction speed 1.7 X
Track quality 100.0 %
Test CRC 616EC2DF
Copy CRC 616EC2DF
Accurately ripped (confidence 10) [44F9F2D8] (AR v2)
Copy OK
Track 12
Filename C:\EAC Rips\Various Artists - Super Hits of the '70s - Have a Nice Day, Vol. 3 (1990) [FLAC]\12 - Punch - Fallin' Lady.wav
Pre-gap length 0:00:02.36
Peak level 82.5 %
Extraction speed 1.8 X
Track quality 100.0 %
Test CRC CBCF4D8B
Copy CRC CBCF4D8B
Accurately ripped (confidence 10) [56E271C5] (AR v2)
Copy OK
All tracks accurately ripped
No errors occurred
End of status report
==== Log checksum F141E4D544E6049392D1EFDB6FA4249D76389F4F13654DDB08179C60932B4F21 ====

Топик был перенесен из форума Disco, Italo-Disco, Hi-NRG в форум Eurodance, Technopop, Disco (lossless)
Magnat


Показать сообщения:    

Текущее время: 20-Июн 18:19

Часовой пояс: UTC + 3


Вы не можете начинать темы
Вы не можете отвечать на сообщения
Вы не можете редактировать свои сообщения
Вы не можете удалять свои сообщения
Вы не можете голосовать в опросах
Вы не можете прикреплять файлы к сообщениям
Вы не можете скачивать файлы

!ВНИМАНИЕ!
Сайт не предоставляет электронные версии произведений, а занимается лишь коллекционированием и каталогизацией ссылок, присылаемых и публикуемых на форуме нашими читателями. Если вы являетесь правообладателем какого-либо представленного материала и не желаете, чтобы ссылка на него находилась в нашем каталоге, свяжитесь с нами, и мы незамедлительно удалим ее. Файлы для обмена на трекере предоставлены пользователями сайта, и администрация не несет ответственности за их содержание. Просьба не заливать файлы, защищенные авторскими правами, а также файлы нелегального содержания!