[Цитировать]

-Radiorama - Desires And Vampires (30th Anniversary Edition, 2CD)--
Год издания: 2016
Страна: Italy
Жанр: Italo-Disco, Euro-Disco
Продолжительность: 01:46:08-Лейбл издания: Analog Language
Страна-выпуска диска: Poland
Номер по каталогу: AL2-Формат: FLAC
Битрейт аудио: Lossless
Тип рипа: tracks
Наличие сканов в содержимом раздачи: Front
-

Трэклист

CD 1 | 00:38:22


01.Desire(3:54)
02.Flight To Fantasy(3:59)
03.Hey Hey(4:36)
04.Wacha Gonna Do(5:29)
05.Vampires(6:14)
06.Chance To Desire(4:08)
07.Friend(4:00)
08.Remix Of Desire(6:01)

CD 2 | 01:07:46


01.Chance To Desire (12'' Vocal Version)(7:52)
02.Chance To Desire (Special Remix)(7:10)
03.Chance To Desire (Instrumental Version)(7:08)
04.Desire (12'' Vocal Version)(5:09)
05.Desire (Swedish Remix)(7:17)
06.Hey Hey (12'' Vocal Version)(5:56)
07.Hey Hey (Remix 89)(5:11)
08.Vampires (Swedish Remix)(6:26)
09.Vampires (Remix 89)(6:25)
10.Vampires (Instrumental)(3:58)
11.Flight Of Fantasy (Remix 89)(5:13)
-

Лог создания рипа

CD 1

Exact Audio Copy V1.1 from 23. June 2015
EAC extraction logfile from 6. August 2016, 10:28
Radiorama / Desires And Vampires (30th Anniversary Edition)
Used drive  : HL-DT-STDVDRAM GH24NSC0   Adapter: 2  ID: 0
Read mode               : Secure
Utilize accurate stream : Yes
Defeat audio cache      : Yes
Make use of C2 pointers : No
Read offset correction                      : 6
Overread into Lead-In and Lead-Out          : No
Fill up missing offset samples with silence : Yes
Delete leading and trailing silent blocks   : No
Null samples used in CRC calculations       : Yes
Used interface                              : Native Win32 interface for Win NT & 2000
Gap handling                                : Appended to previous track
Used output format              : User Defined Encoder
Selected bitrate                : 128 kBit/s
Quality                         : High
Add ID3 tag                     : No
Command line compressor         : C:\Program Files (x86)\Exact Audio Copy\Flac\flac.exe
Additional command line options : -8 -V -T "ARTIST=%artist%" -T "TITLE=%title%" -T "ALBUM=%albumtitle%" -T "DATE=%year%" -T "TRACKNUMBER=%tracknr%" -T "GENRE=%genre%" -T "PERFORMER=%albuminterpret%" -T "COMPOSER=%composer%" %haslyrics%--tag-from-file=LYRICS="%lyricsfile%"%haslyrics% -T "ALBUMARTIST=%albumartist%" -T "DISCNUMBER=%cdnumber%" -T "TOTALDISCS=%totalcds%" -T "TOTALTRACKS=%numtracks%" -T "COMMENT=%comment%" %source% -o %dest%
TOC of the extracted CD
     Track |   Start  |  Length  | Start sector | End sector
    ---------------------------------------------------------
        1  |  0:00.00 |  3:54.22 |         0    |    17571
        2  |  3:54.22 |  3:59.30 |     17572    |    35526
        3  |  7:53.52 |  4:36.25 |     35527    |    56251
        4  | 12:30.02 |  5:28.54 |     56252    |    80905
        5  | 17:58.56 |  6:14.19 |     80906    |   108974
        6  | 24:13.00 |  4:08.31 |    108975    |   127605
        7  | 28:21.31 |  3:59.43 |    127606    |   145573
        8  | 32:20.74 |  6:00.65 |    145574    |   172638
Track  1
     Filename M:\01 - Desire.wav
     Pre-gap length  0:00:02.00
     Peak level 96.4 %
     Extraction speed 4.7 X
     Track quality 100.0 %
     Test CRC 9B055B0E
     Copy CRC 9B055B0E
     Accurately ripped (confidence 1)  [643DA235]  (AR v2)
     Copy OK
Track  2
     Filename M:\02 - Flight To Fantasy.wav
     Peak level 96.4 %
     Extraction speed 4.6 X
     Track quality 99.9 %
     Test CRC 77A73517
     Copy CRC 77A73517
     Accurately ripped (confidence 1)  [406FC232]  (AR v2)
     Copy OK
Track  3
     Filename M:\03 - Hey Hey.wav
     Peak level 96.4 %
     Extraction speed 5.6 X
     Track quality 100.0 %
     Test CRC E2E0C9DF
     Copy CRC E2E0C9DF
     Accurately ripped (confidence 1)  [DE99E363]  (AR v2)
     Copy OK
Track  4
     Filename M:\04 - Wacha Gonna Do.wav
     Peak level 96.4 %
     Extraction speed 6.2 X
     Track quality 100.0 %
     Test CRC F255E5B2
     Copy CRC F255E5B2
     Accurately ripped (confidence 1)  [17025299]  (AR v2)
     Copy OK
Track  5
     Filename M:\05 - Vampires.wav
     Peak level 96.4 %
     Extraction speed 6.8 X
     Track quality 100.0 %
     Test CRC A4A274D7
     Copy CRC A4A274D7
     Accurately ripped (confidence 1)  [ED95F429]  (AR v2)
     Copy OK
Track  6
     Filename M:\06 - Chance To Desire.wav
     Peak level 96.4 %
     Extraction speed 6.8 X
     Track quality 100.0 %
     Test CRC CDCD76E6
     Copy CRC CDCD76E6
     Accurately ripped (confidence 1)  [6CA75D9A]  (AR v2)
     Copy OK
Track  7
     Filename M:\07 - Friend.wav
     Peak level 96.4 %
     Extraction speed 7.0 X
     Track quality 100.0 %
     Test CRC 3DEA5349
     Copy CRC 3DEA5349
     Accurately ripped (confidence 1)  [5A65C2B0]  (AR v2)
     Copy OK
Track  8
     Filename M:\08 - Remix Of Desire.wav
     Peak level 96.4 %
     Extraction speed 7.0 X
     Track quality 99.9 %
     Test CRC 8A0DEDE9
     Copy CRC 8A0DEDE9
     Accurately ripped (confidence 1)  [E73231B9]  (AR v2)
     Copy OK
All tracks accurately ripped
No errors occurred
End of status report

CD 2

Exact Audio Copy V1.1 from 23. June 2015
EAC extraction logfile from 6. August 2016, 10:09
Radiorama / Desires And Vampires (30th Anniversary Edition)
Used drive  : HL-DT-STDVDRAM GH24NSC0   Adapter: 2  ID: 0
Read mode               : Secure
Utilize accurate stream : Yes
Defeat audio cache      : Yes
Make use of C2 pointers : No
Read offset correction                      : 6
Overread into Lead-In and Lead-Out          : No
Fill up missing offset samples with silence : Yes
Delete leading and trailing silent blocks   : No
Null samples used in CRC calculations       : Yes
Used interface                              : Native Win32 interface for Win NT & 2000
Gap handling                                : Appended to previous track
Used output format              : User Defined Encoder
Selected bitrate                : 128 kBit/s
Quality                         : High
Add ID3 tag                     : No
Command line compressor         : C:\Program Files (x86)\Exact Audio Copy\Flac\flac.exe
Additional command line options : -8 -V -T "ARTIST=%artist%" -T "TITLE=%title%" -T "ALBUM=%albumtitle%" -T "DATE=%year%" -T "TRACKNUMBER=%tracknr%" -T "GENRE=%genre%" -T "PERFORMER=%albuminterpret%" -T "COMPOSER=%composer%" %haslyrics%--tag-from-file=LYRICS="%lyricsfile%"%haslyrics% -T "ALBUMARTIST=%albumartist%" -T "DISCNUMBER=%cdnumber%" -T "TOTALDISCS=%totalcds%" -T "TOTALTRACKS=%numtracks%" -T "COMMENT=%comment%" %source% -o %dest%
TOC of the extracted CD
     Track |   Start  |  Length  | Start sector | End sector
    ---------------------------------------------------------
        1  |  0:00.00 |  7:52.10 |         0    |    35409
        2  |  7:52.10 |  7:10.13 |     35410    |    67672
        3  | 15:02.23 |  7:08.22 |     67673    |    99794
        4  | 22:10.45 |  5:08.50 |     99795    |   122944
        5  | 27:19.20 |  7:16.61 |    122945    |   155705
        6  | 34:36.06 |  5:56.22 |    155706    |   182427
        7  | 40:32.28 |  5:11.02 |    182428    |   205754
        8  | 45:43.30 |  6:26.27 |    205755    |   234731
        9  | 52:09.57 |  6:25.28 |    234732    |   263634
       10  | 58:35.10 |  3:57.65 |    263635    |   281474
       11  | 62:33.00 |  5:13.16 |    281475    |   304965
Track  1
     Filename M:\01 - Chance To Desire (12'' Vocal Version).wav
     Pre-gap length  0:00:02.00
     Peak level 96.4 %
     Extraction speed 5.3 X
     Track quality 100.0 %
     Test CRC 1048988A
     Copy CRC 1048988A
     Accurately ripped (confidence 1)  [296721CF]  (AR v2)
     Copy OK
Track  2
     Filename M:\02 - Chance To Desire (Special Remix).wav
     Peak level 96.4 %
     Extraction speed 6.0 X
     Track quality 100.0 %
     Test CRC F530917D
     Copy CRC F530917D
     Accurately ripped (confidence 1)  [109A0B1F]  (AR v2)
     Copy OK
Track  3
     Filename M:\03 - Chance To Desire (Instrumental Version).wav
     Peak level 96.4 %
     Extraction speed 6.2 X
     Track quality 99.9 %
     Test CRC 45C8A067
     Copy CRC 45C8A067
     Accurately ripped (confidence 1)  [ED98C44F]  (AR v2)
     Copy OK
Track  4
     Filename M:\04 - Desire (12'' Vocal Version).wav
     Peak level 96.4 %
     Extraction speed 6.9 X
     Track quality 100.0 %
     Test CRC A12F570F
     Copy CRC A12F570F
     Accurately ripped (confidence 1)  [8166808F]  (AR v2)
     Copy OK
Track  5
     Filename M:\05 - Desire (Swedish Remix).wav
     Peak level 96.4 %
     Extraction speed 7.5 X
     Track quality 100.0 %
     Test CRC 4312F687
     Copy CRC 4312F687
     Accurately ripped (confidence 1)  [4755FA16]  (AR v2)
     Copy OK
Track  6
     Filename M:\06 - Hey Hey (12'' Vocal Version).wav
     Peak level 96.4 %
     Extraction speed 7.8 X
     Track quality 100.0 %
     Test CRC 962DD7FB
     Copy CRC 962DD7FB
     Accurately ripped (confidence 1)  [647A27C6]  (AR v2)
     Copy OK
Track  7
     Filename M:\07 - Hey Hey (Remix 89).wav
     Peak level 96.4 %
     Extraction speed 8.0 X
     Track quality 100.0 %
     Test CRC F6120C0F
     Copy CRC F6120C0F
     Accurately ripped (confidence 1)  [7A00FD40]  (AR v2)
     Copy OK
Track  8
     Filename M:\08 - Vampires (Swedish Remix).wav
     Peak level 96.4 %
     Extraction speed 8.5 X
     Track quality 100.0 %
     Test CRC D6418736
     Copy CRC D6418736
     Accurately ripped (confidence 1)  [16925F09]  (AR v2)
     Copy OK
Track  9
     Filename M:\09 - Vampires (Remix 89).wav
     Peak level 96.4 %
     Extraction speed 8.9 X
     Track quality 100.0 %
     Test CRC B8A6558E
     Copy CRC B8A6558E
     Accurately ripped (confidence 1)  [274BB869]  (AR v2)
     Copy OK
Track 10
     Filename M:\10 - Vampires (Instrumental).wav
     Peak level 96.4 %
     Extraction speed 8.7 X
     Track quality 100.0 %
     Test CRC 4329A127
     Copy CRC 4329A127
     Accurately ripped (confidence 1)  [30B457B4]  (AR v2)
     Copy OK
Track 11
     Filename M:\11 - Flight Of Fantasy (Remix 89).wav
     Peak level 96.4 %
     Extraction speed 9.1 X
     Track quality 100.0 %
     Test CRC 23674210
     Copy CRC 23674210
     Accurately ripped (confidence 1)  [0188CBAF]  (AR v2)
     Copy OK
All tracks accurately ripped
No errors occurred
End of status report

Индексная карта (non-compilant .cue)

CD 1

REM GENRE Disco
REM DATE 2016
REM DISCID 5E08FD08
REM COMMENT "ExactAudioCopy v1.1"
CATALOG 5908262785213
PERFORMER "Radiorama"
TITLE "Desires And Vampires (30th Anniversary Edition)"
FILE "01 - Desire.wav" WAVE
  TRACK 01 AUDIO
    TITLE "Desire"
    PERFORMER "Radiorama"
    ISRC DEA319903904
    INDEX 01 00:00:00
FILE "02 - Flight To Fantasy.wav" WAVE
  TRACK 02 AUDIO
    TITLE "Flight To Fantasy"
    PERFORMER "Radiorama"
    ISRC DEA311000846
    INDEX 01 00:00:00
FILE "03 - Hey Hey.wav" WAVE
  TRACK 03 AUDIO
    TITLE "Hey Hey"
    PERFORMER "Radiorama"
    ISRC DEA311000847
    INDEX 01 00:00:00
FILE "04 - Wacha Gonna Do.wav" WAVE
  TRACK 04 AUDIO
    TITLE "Wacha Gonna Do"
    PERFORMER "Radiorama"
    ISRC DEA311000848
    INDEX 01 00:00:00
FILE "05 - Vampires.wav" WAVE
  TRACK 05 AUDIO
    TITLE "Vampires"
    PERFORMER "Radiorama"
    ISRC DEA311000849
    INDEX 01 00:00:00
FILE "06 - Chance To Desire.wav" WAVE
  TRACK 06 AUDIO
    TITLE "Chance To Desire"
    PERFORMER "Radiorama"
    ISRC DEA319601674
    INDEX 01 00:00:00
FILE "07 - Friend.wav" WAVE
  TRACK 07 AUDIO
    TITLE "Friend"
    PERFORMER "Radiorama"
    ISRC DEA311000850
    INDEX 01 00:00:00
FILE "08 - Remix Of Desire.wav" WAVE
  TRACK 08 AUDIO
    TITLE "Remix Of Desire"
    PERFORMER "Radiorama"
    ISRC DEA319802488
    INDEX 01 00:00:00

CD 2

REM GENRE Disco
REM DATE 2016
REM DISCID 8F0FE20B
REM COMMENT "ExactAudioCopy v1.1"
CATALOG 5908262785213
PERFORMER "Radiorama"
TITLE "Desires And Vampires (30th Anniversary Edition)"
FILE "01 - Chance To Desire (12'' Vocal Version).wav" WAVE
  TRACK 01 AUDIO
    TITLE "Chance To Desire (12'' Vocal Version)"
    PERFORMER "Radiorama"
    ISRC DEA311005274
    INDEX 01 00:00:00
FILE "02 - Chance To Desire (Special Remix).wav" WAVE
  TRACK 02 AUDIO
    TITLE "Chance To Desire (Special Remix)"
    PERFORMER "Radiorama"
    ISRC DEA311102521
    INDEX 01 00:00:00
FILE "03 - Chance To Desire (Instrumental Version).wav" WAVE
  TRACK 03 AUDIO
    TITLE "Chance To Desire (Instrumental Version)"
    PERFORMER "Radiorama"
    ISRC DEA311005273
    INDEX 01 00:00:00
FILE "04 - Desire (12'' Vocal Version).wav" WAVE
  TRACK 04 AUDIO
    TITLE "Desire (12'' Vocal Version)"
    PERFORMER "Radiorama"
    ISRC DEA311600397
    INDEX 01 00:00:00
FILE "05 - Desire (Swedish Remix).wav" WAVE
  TRACK 05 AUDIO
    TITLE "Desire (Swedish Remix)"
    PERFORMER "Radiorama"
    ISRC DEA311600398
    INDEX 01 00:00:00
FILE "06 - Hey Hey (12'' Vocal Version).wav" WAVE
  TRACK 06 AUDIO
    TITLE "Hey Hey (12'' Vocal Version)"
    PERFORMER "Radiorama"
    ISRC DEA311005953
    INDEX 01 00:00:00
FILE "07 - Hey Hey (Remix 89).wav" WAVE
  TRACK 07 AUDIO
    TITLE "Hey Hey (Remix 89)"
    PERFORMER "Radiorama"
    ISRC DEA311005954
    INDEX 01 00:00:00
FILE "08 - Vampires (Swedish Remix).wav" WAVE
  TRACK 08 AUDIO
    TITLE "Vampires (Swedish Remix)"
    PERFORMER "Radiorama"
    ISRC DEA319802490
    INDEX 01 00:00:00
FILE "09 - Vampires (Remix 89).wav" WAVE
  TRACK 09 AUDIO
    TITLE "Vampires (Remix 89)"
    PERFORMER "Radiorama"
    ISRC DEA311600399
    INDEX 01 00:00:00
FILE "10 - Vampires (Instrumental).wav" WAVE
  TRACK 10 AUDIO
    TITLE "Vampires (Instrumental)"
    PERFORMER "Radiorama"
    ISRC DEA311600399
    INDEX 01 00:00:00
FILE "11 - Flight Of Fantasy (Remix 89).wav" WAVE
  TRACK 11 AUDIO
    TITLE "Flight Of Fantasy (Remix 89)"
    PERFORMER "Radiorama"
    ISRC DEA319802491
    INDEX 01 00:00:00

фото CD

--


Показать сообщения:    

Текущее время: 22-Окт 04:09

Часовой пояс: UTC + 3


Вы не можете начинать темы
Вы не можете отвечать на сообщения
Вы не можете редактировать свои сообщения
Вы не можете удалять свои сообщения
Вы не можете голосовать в опросах
Вы не можете прикреплять файлы к сообщениям
Вы не можете скачивать файлы

!ВНИМАНИЕ!
Сайт не предоставляет электронные версии произведений, а занимается лишь коллекционированием и каталогизацией ссылок, присылаемых и публикуемых на форуме нашими читателями. Если вы являетесь правообладателем какого-либо представленного материала и не желаете, чтобы ссылка на него находилась в нашем каталоге, свяжитесь с нами, и мы незамедлительно удалим ее. Файлы для обмена на трекере предоставлены пользователями сайта, и администрация не несет ответственности за их содержание. Просьба не заливать файлы, защищенные авторскими правами, а также файлы нелегального содержания!