[Цитировать]

Виплала / Wiplala Название: Виплала
Оригинальное название: Wiplala
Год выпуска: 2014
Жанр: приключения, семейный, детский
Режиссер: Тим Олихоек
В Ролях:
Питер Пол Мюллер, Геза Вайз, Як Воутерсе, Питер Ван ден Бегин, Кэс Джэнсен, Ганс Кестинг, Рене Гротхоф, Морис Нэйтан Вирт
Описание:
Что не говори, но семью Бломов нельзя считать успешной. Ведь на плечи отца семейства после смерти супруги легла вся ответственность за двух несовершеннолетних детей. Да и должность учителя в местной школе — это не гарант финансового благополучия. Но самое главное — это то, что в этой семье никто не унывает, даже самый младший Йоханнес — самый впечатлительный и безропотный. И так уж случилось, что именно он обнаружил в своем доме на кухне маленького человечка, который очень любил арахисовое масло. И все бы ничего, но Йоханнес попросил своего гостя об одном одолжении.
Кинопоиск: 5.821 (91)
Страна: Нидерланды / Bos Bros. Film & TV Productions, Mollywood, Samsa Film
Перевод: Любительский (одноголосый закадровый) [Роман Максимук]
Продолжительность: 02:07:04
Качество: HDRip
Формат: AVI
Видео: 720x304 (2.37:1), 25 fps, XviD build 64 ~1517 kbps avg, 0.28 bit/pixel
Аудио #1: 48 kHz, AC3 Dolby Digital, 2/0 (L,R) ch, ~192 kbps
Аудио #2:48 kHz, AC3 Dolby Digital, 3/2 (L,C,R,l,r) + LFE ch, ~448 kbps

MI

Общее
Полное имя : E:\Мои релизы Трекеров\Зарубежные фильмы\2014\Приключения\Виплала\Виплала.avi
Формат : AVI
Формат/Информация : Audio Video Interleave
Профиль формата : OpenDML
Размер файла : 1,46 Гбайт
Продолжительность : 1 ч. 36 м.
Общий поток : 2164 Кбит/сек
Название фильма : Rip by basma4i
Программа кодирования : XviD4PSP 6.0 / 54.29.105
Видео
Идентификатор : 0
Формат : xvid
Идентификатор кодека : xvid
Продолжительность : 1 ч. 36 м.
Битрейт : 1505 Кбит/сек
Ширина : 720 пикселей
Высота : 304 пикселя
Соотношение сторон : 2,40:1
Частота кадров : 25,000 кадров/сек
Тип развёртки : Прогрессивная
Бит/(Пиксели*Кадры) : 0.275
Размер потока : 1,01 Гбайт (70%)
Аудио #1
Идентификатор : 1
Формат : AC-3
Формат/Информация : Audio Coding 3
Расширение режима : CM (complete main)
Параметр Endianness формата : Big
Идентификатор кодека : 2000
Продолжительность : 1 ч. 36 м.
Вид битрейта : Постоянный
Битрейт : 192 Кбит/сек
Каналы : 2 канала
Расположение каналов : Front: L R
Частота : 48,0 КГц
Частота кадров : 31,250 кадров/сек (1536 spf)
Битовая глубина : 16 бит
Метод сжатия : С потерями
Размер потока : 132 Мбайт (9%)
Выравнивание : Соединение по промежуткам
Продолжительность промежутка : 32 мс. (0,80 видеокадр)
Аудио #2
Идентификатор : 2
Формат : AC-3
Формат/Информация : Audio Coding 3
Расширение режима : CM (complete main)
Параметр Endianness формата : Big
Идентификатор кодека : 2000
Продолжительность : 1 ч. 36 м.
Вид битрейта : Постоянный
Битрейт : 448 Кбит/сек
Каналы : 6 каналов
Расположение каналов : Front: L C R, Side: L R, LFE
Частота : 48,0 КГц
Частота кадров : 31,250 кадров/сек (1536 spf)
Битовая глубина : 16 бит
Метод сжатия : С потерями
Размер потока : 309 Мбайт (21%)
Выравнивание : Соединение по промежуткам
Продолжительность промежутка : 32 мс. (0,80 видеокадр)
Скриншоты:


Показать сообщения:    

Текущее время: 18-Авг 21:16

Часовой пояс: UTC + 3


Вы не можете начинать темы
Вы не можете отвечать на сообщения
Вы не можете редактировать свои сообщения
Вы не можете удалять свои сообщения
Вы не можете голосовать в опросах
Вы не можете прикреплять файлы к сообщениям
Вы не можете скачивать файлы

!ВНИМАНИЕ!
Сайт не предоставляет электронные версии произведений, а занимается лишь коллекционированием и каталогизацией ссылок, присылаемых и публикуемых на форуме нашими читателями. Если вы являетесь правообладателем какого-либо представленного материала и не желаете, чтобы ссылка на него находилась в нашем каталоге, свяжитесь с нами, и мы незамедлительно удалим ее. Файлы для обмена на трекере предоставлены пользователями сайта, и администрация не несет ответственности за их содержание. Просьба не заливать файлы, защищенные авторскими правами, а также файлы нелегального содержания!