[Цитировать]

-Экипаж (1979) HDDVDRip 720p -- Информация о фильме
Название: Экипаж
Год выхода: 1979
Жанр: Фильм-Катастрофа
Режиссер: Александр Митта
В ролях: Георгий Жжёнов, Анатолий Васильев, Леонид Филатов, Александра Яковлева, Ирина Акулова, Екатерина Васильева, Юрий Горобец, Александр Павлов, Галина Гладкова, Рома Монин, Комаки Курихара, Елена Коренева
О фильме:
Экипаж самолета, перевозящего грузы и пассажиров, попадает в ситуацию, по сравнению, с которой конец света может показаться детской забавой… В аэропорту, в котором приземлился самолет, землетрясение. Извергается огненная лава, земля уходит из под ног, все вокруг горит и рушится, людей охватывает ужас, возникает паника. После прибытия самолета происходит огромной силы новый толчок. Взлетная полоса повреждена...

Интересные факты

Фильм уникален тем, что состоит из двух серий, совершенно разных по жанру, но органично дополняющих друг друга. Первая серия — бытовая мелодрама, вторая — фильм-катастрофа.
Одним из главных «героев» фильма стал самолёт "Ту-154Б", борт СССР-85131. Самолёт принадлежал Бориспольскому авиаотряду. Во время одного из перелётов в нём разлили ртуть. Чтобы выпарить ртуть, через салон гоняли водяной пар, однако, это привело к тому, что самолёт потерял нормы лётной годности, и его решили списать.
Съёмки тушения хвоста велись с использованием уцелевшего хвостового оперения от сгоревшего в Толмачёво "Ту-154" 85087.
Роль командира экипажа Тимченко изначально была предложена Алексею Петренко, но он отказался. И тогда был приглашен Георгий Жженов. На роль бортинженера Скворцова был утвержден Олег Даль, он успел отсняться в нескольких эпизодах, но серьёзно заболел, и вместо него был приглашен Леонид Филатов. На роль стюардессы Тамары была приглашена Елена Проклова, но она отказалась, затем пригласили Татьяну Догилеву - она тоже была занята. И только потом нашли Александру Иванес (Яковлева - это псевдоним). "Экипаж" - ее первая роль в кино.
Страна: СССР
Продолжительность: 02:15:35
Перевод: не требуется
Файл
Кодек: x264
Качество: HDDVDRip 720p - Custom
Видео: MPEG-4 AVC, 4004 Кбит/с, 994x720
Звук: AC3, 6 ch, 448 Кбит/с, AC3, 1 ch, 224 Кбит/с

Медиа-Инфо

Общее
Уникальный идентификатор : 217772372500717310092653408907722837648 (0xA3D56EEE72DD76BCB193F9BA58954E90)
Полное имя : D:Экипаж_1979-HDDVDRip 720p.mkv
Формат : Matroska
Версия формата : Version 2
Размер файла : 4,43 Гбайт
Продолжительность : 2 ч. 15 м.
Общий поток : 4678 Кбит/сек
Дата кодирования : UTC 2016-01-02 05:19:47
Программа кодирования : mkvmerge v5.8.0 ('No Sleep / Pillow') built on Sep 2 2012 15:37:04
Библиотека кодирования : libebml v1.2.3 + libmatroska v1.3.0
Видео
Идентификатор : 1
Формат : AVC
Формат/Информация : Advanced Video Codec
Профиль формата : [email protected]
Параметр CABAC формата : Да
Параметр ReFrames формата : 11 кадров
Идентификатор кодека : V_MPEG4/ISO/AVC
Продолжительность : 2 ч. 15 м.
Битрейт : 4004 Кбит/сек
Ширина : 994 пикселя
Высота : 720 пикселей
Соотношение сторон : 1,381
Режим частоты кадров : Постоянный
Частота кадров : 25,000 кадров/сек
Цветовое пространство : YUV
Субдискретизация насыщенности : 4:2:0
Битовая глубина : 8 бит
Тип развёртки : Прогрессивная
Бит/(Пиксели*Кадры) : 0.224
Размер потока : 3,71 Гбайт (84%)
Библиотека кодирования : x264 core 148 r2638 7599210
Настройки программы : cabac=1 / ref=11 / deblock=1:-2:-2 / analyse=0x3:0x113 / me=umh / subme=10 / psy=1 / psy_rd=0.85:0.10 / mixed_ref=1 / me_range=32 / chroma_me=1 / trellis=2 / 8x8dct=1 / cqm=0 / deadzone=21,11 / fast_pskip=0 / chroma_qp_offset=-3 / threads=12 / lookahead_threads=2 / sliced_threads=0 / nr=0 / decimate=0 / interlaced=0 / bluray_compat=0 / constrained_intra=0 / bframes=8 / b_pyramid=2 / b_adapt=2 / b_bias=0 / direct=3 / weightb=1 / open_gop=0 / weightp=2 / keyint=250 / keyint_min=25 / scenecut=40 / intra_refresh=0 / rc_lookahead=40 / rc=2pass / mbtree=0 / bitrate=4004 / ratetol=1.0 / qcomp=0.63 / qpmin=0 / qpmax=39 / qpstep=4 / cplxblur=20.0 / qblur=0.5 / vbv_maxrate=50000 / vbv_bufsize=62500 / nal_hrd=none / filler=0 / ip_ratio=1.40 / pb_ratio=1.30 / aq=1:0.90
Язык : English
Default : Да
Forced : Нет
Цветовой диапазон : Limited
Основные цвета : BT.709
Характеристики трансфера : BT.709
Коэффициенты матрицы : BT.709
Аудио #1
Идентификатор : 2
Формат : AC-3
Формат/Информация : Audio Coding 3
Расширение режима : CM (complete main)
Параметр Endianness формата : Big
Идентификатор кодека : A_AC3
Продолжительность : 2 ч. 15 м.
Вид битрейта : Постоянный
Битрейт : 448 Кбит/сек
Каналы : 6 каналов
Расположение каналов : Front: L C R, Side: L R, LFE
Частота : 48,0 КГц
Метод сжатия : С потерями
Размер потока : 434 Мбайт (10%)
Язык : Russian
Default : Да
Forced : Нет
Аудио #2
Идентификатор : 3
Формат : AC-3
Формат/Информация : Audio Coding 3
Расширение режима : CM (complete main)
Параметр Endianness формата : Big
Идентификатор кодека : A_AC3
Продолжительность : 2 ч. 15 м.
Вид битрейта : Постоянный
Битрейт : 224 Кбит/сек
Каналы : 1 канал
Расположение каналов : Front: C
Частота : 48,0 КГц
Метод сжатия : С потерями
Размер потока : 217 Мбайт (5%)
Язык : Russian
Default : Нет
Forced : Нет

[Цитировать]

Огромное СПАСИБОО!!!

[Цитировать]

258532Огромное СПАСИБОО!!!
aa


Показать сообщения:    

Текущее время: 18-Ноя 16:18

Часовой пояс: UTC + 3


Вы не можете начинать темы
Вы не можете отвечать на сообщения
Вы не можете редактировать свои сообщения
Вы не можете удалять свои сообщения
Вы не можете голосовать в опросах
Вы не можете прикреплять файлы к сообщениям
Вы не можете скачивать файлы

!ВНИМАНИЕ!
Сайт не предоставляет электронные версии произведений, а занимается лишь коллекционированием и каталогизацией ссылок, присылаемых и публикуемых на форуме нашими читателями. Если вы являетесь правообладателем какого-либо представленного материала и не желаете, чтобы ссылка на него находилась в нашем каталоге, свяжитесь с нами, и мы незамедлительно удалим ее. Файлы для обмена на трекере предоставлены пользователями сайта, и администрация не несет ответственности за их содержание. Просьба не заливать файлы, защищенные авторскими правами, а также файлы нелегального содержания!