[Цитировать]

Капитан Алатристе / Alatriste «Честь одна, и она не продается...»
Перевод: Профессиональный (полное дублирование)
Субтитры: русские, английские (отключаемые)
Формат: BDRip (AVC), MKV, H.264, AC3
Страна: Испания
Режиссер: Агустин Диас Янес
Жанр: исторический, приключения, драма
Продолжительность: 02:25:02
Год выпуска: 2006
В ролях: Вигго Мортенсен, Елена Анайя, Унакс Угальде, Эдуард Фернандес, Эдуардо Норьега, Ариадна Хиль, Хуан Эчанове, Хавьер Камара, Антонио Дечент, Бланка Портильо
Описание: Время и место действия - Испания семнадцатого века, эпоха правления Филиппа Четвертого.
Этим слабым, подверженным чужому влиянию монархом, с легкостью манипулирует его развращенный полный интриг двор, где всем заправляет влиятельный граф Ольварес. В этой империи, которая неуклонно движется к своему закату и разворачиваются приключения Диего Алатристе - гордого солдата на службе Его Величества во Фландрии, а в мирное время - наемника в Мадриде и Севилье.
Вместе с этим персонажем мы попадем в мир интриг и предательств, дуэлей и битв, ненависти и любви, разыгранных на фоне удивительно точно реконструированной эпохи...

Рейтинг:

Видео: 1024х544 (1.85:1), 24,000 fps, AVC (х264), [email protected], ~2000 Kbps avg, 0.150 bit/pixel
Аудио #1: русский 48.0 kHz, AC3 Dolby Digital, 6 channels (Front: L C R, Side: L R, LFE), ~448 kbps avg [профессиональный, дублированный]
Аудио #2: испанский 48.0 KHz, AC3 Dolby Digital, 6 channels (Front: L C R, Side: L R, LFE), ~448 kbps avg [оригинальный]
Доп. информация: Полноэкранное изображение (16:9)

MediaInfo

Общее
Уникальный идентификатор : 225001253372701645943890667156556956625 (0xA945AA46954E54E28048E42D172B43D1)
Полное имя : D:\Video\...\kapitan_alatriste_[tfile.me].mkv
Формат : Matroska
Версия формата : Version 4 / Version 2
Размер файла : 2,94 Гбайт
Продолжительность : 2 ч. 25 м.
Общий поток : 2898 Кбит/сек
Дата кодирования : UTC 2015-05-13 07:30:18
Программа кодирования : mkvmerge v7.7.0 ('Six Voices') 64bit built on Feb 28 2015 23:39:33
Библиотека кодирования : XviD4PSP 6.0 / 54.29.105
Видео
Идентификатор : 1
Формат : AVC
Формат/Информация : Advanced Video Codec
Профиль формата : [email protected]
Параметр CABAC формата : Да
Параметр ReFrames формата : 8 кадров
Идентификатор кодека : V_MPEG4/ISO/AVC
Продолжительность : 2 ч. 25 м.
Битрейт : 2000 Кбит/сек
Ширина : 1024 пикселя
Высота : 544 пикселя
Соотношение сторон : 1,85:1
Режим частоты кадров : Постоянный
Частота кадров : 24,000 кадра/сек
Цветовое пространство : YUV
Субдискретизация насыщенности : 4:2:0
Битовая глубина : 8 бит
Тип развёртки : Прогрессивная
Бит/(Пиксели*Кадры) : 0.150
Размер потока : 1,97 Гбайт (67%)
Библиотека кодирования : x264 core 128 r2216M 198a7ea
Настройки программы : cabac=1 / ref=9 / deblock=1:-3:-3 / analyse=0x3:0x133 / me=umh / subme=11 / psy=0 / mixed_ref=1 / me_range=32 / chroma_me=1 / trellis=2 / 8x8dct=1 / cqm=0 / deadzone=21,11 / fast_pskip=1 / chroma_qp_offset=0 / threads=4 / lookahead_threads=1 / sliced_threads=0 / nr=0 / decimate=1 / interlaced=0 / bluray_compat=0 / constrained_intra=0 / bframes=9 / b_pyramid=1 / b_adapt=2 / b_bias=0 / direct=3 / weightb=1 / open_gop=0 / weightp=2 / keyint=240 / keyint_min=24 / scenecut=40 / intra_refresh=0 / rc_lookahead=40 / rc=2pass / mbtree=1 / bitrate=2000 / ratetol=1.0 / qcomp=0.60 / qpmin=0 / qpmax=69 / qpstep=4 / cplxblur=20.0 / qblur=0.5 / ip_ratio=1.40 / aq=1:1.00
Default : Да
Forced : Нет
DURATION : 02:25:02.375000000
NUMBER_OF_FRAMES : 208857
NUMBER_OF_BYTES : 2175402917
_STATISTICS_WRITING_APP : mkvmerge v7.7.0 ('Six Voices') 64bit built on Feb 28 2015 23:39:33
_STATISTICS_WRITING_DATE_UTC : 2015-05-13 07:30:18
_STATISTICS_TAGS : BPS DURATION NUMBER_OF_FRAMES NUMBER_OF_BYTES
Аудио #1
Идентификатор : 2
Формат : AC-3
Формат/Информация : Audio Coding 3
Расширение режима : CM (complete main)
Параметр Endianness формата : Big
Идентификатор кодека : A_AC3
Продолжительность : 2 ч. 25 м.
Вид битрейта : Постоянный
Битрейт : 448 Кбит/сек
Каналы : 6 каналов
Расположение каналов : Front: L C R, Side: L R, LFE
Частота : 48,0 КГц
Битовая глубина : 16 бит
Метод сжатия : С потерями
Задержка видео : 27 мс.
Размер потока : 465 Мбайт (15%)
Язык : Spanish
Default : Нет
Forced : Нет
DURATION : 02:25:02.560000000
NUMBER_OF_FRAMES : 271955
NUMBER_OF_BYTES : 487343360
_STATISTICS_WRITING_APP : mkvmerge v7.7.0 ('Six Voices') 64bit built on Feb 28 2015 23:39:33
_STATISTICS_WRITING_DATE_UTC : 2015-05-13 07:30:18
_STATISTICS_TAGS : BPS DURATION NUMBER_OF_FRAMES NUMBER_OF_BYTES
Аудио #2
Идентификатор : 3
Формат : AC-3
Формат/Информация : Audio Coding 3
Расширение режима : CM (complete main)
Параметр Endianness формата : Big
Идентификатор кодека : A_AC3
Продолжительность : 2 ч. 25 м.
Вид битрейта : Постоянный
Битрейт : 448 Кбит/сек
Каналы : 6 каналов
Расположение каналов : Front: L C R, Side: L R, LFE
Частота : 48,0 КГц
Битовая глубина : 16 бит
Метод сжатия : С потерями
Задержка видео : 27 мс.
Размер потока : 465 Мбайт (15%)
Язык : Russian
Default : Да
Forced : Нет
DURATION : 02:25:02.560000000
NUMBER_OF_FRAMES : 271955
NUMBER_OF_BYTES : 487343360
_STATISTICS_WRITING_APP : mkvmerge v7.7.0 ('Six Voices') 64bit built on Feb 28 2015 23:39:33
_STATISTICS_WRITING_DATE_UTC : 2015-05-13 07:30:18
_STATISTICS_TAGS : BPS DURATION NUMBER_OF_FRAMES NUMBER_OF_BYTES
Текст #1
Идентификатор : 4
Формат : UTF-8
Идентификатор кодека : S_TEXT/UTF8
Идентификатор кодека/Информация : UTF-8 Plain Text
Язык : Russian
Default : Да
Forced : Нет
Текст #2
Идентификатор : 5
Формат : UTF-8
Идентификатор кодека : S_TEXT/UTF8
Идентификатор кодека/Информация : UTF-8 Plain Text
Язык : English
Default : Нет
Forced : Нет

Показать скриншоты








Не жилим спасибо. Не забываем голосовать за трекер!!!


Показать сообщения:    

Текущее время: 22-Окт 02:15

Часовой пояс: UTC + 3


Вы не можете начинать темы
Вы не можете отвечать на сообщения
Вы не можете редактировать свои сообщения
Вы не можете удалять свои сообщения
Вы не можете голосовать в опросах
Вы не можете прикреплять файлы к сообщениям
Вы не можете скачивать файлы

!ВНИМАНИЕ!
Сайт не предоставляет электронные версии произведений, а занимается лишь коллекционированием и каталогизацией ссылок, присылаемых и публикуемых на форуме нашими читателями. Если вы являетесь правообладателем какого-либо представленного материала и не желаете, чтобы ссылка на него находилась в нашем каталоге, свяжитесь с нами, и мы незамедлительно удалим ее. Файлы для обмена на трекере предоставлены пользователями сайта, и администрация не несет ответственности за их содержание. Просьба не заливать файлы, защищенные авторскими правами, а также файлы нелегального содержания!