[Цитировать]

Стрингер / Nightcrawler (2014) BDRip [H.264]«Секреты Лос-Анджелеса»- Производство: США / Bold Films, Nightcrawler, Sierra Pictures (III)
Жанр: триллер, криминал
Режиссер: Дэн Гилрой
Продюсер: Дженнифер Фокс, Тони Гилрой, Джейк Джилленхол
Актеры: Джейк Джилленхол, Рене Руссо, Риз Ахмед, Билл Пэкстон, Майкл Пападжон, Марко Родригес, Джеймс Хуанг, Кент Шокнек, Пэт Харви, Шэрон Тэй
Описание:
Луи Блум пытается найти работу. После того как он видит, как любительская съемочная группа снимает автомобильную аварию, он меняет ворованный велосипед на камеру и снимает последствия угона автомобиля, чтобы продать местной телевизионной компании. Директор новостей Нина покупает запись и убеждает его продолжить работу. Вскоре становится ясно, что ради по-настоящему стоящего материала Луи не остановится ни перед чем...

Рейтинг MPAA: R - Детям до 17 лет обязательно присутствие родителей
Дата мировой премьеры: 5 сентября 2014
Дата российской премьеры: 6 августа 2015, «Премиум Фильм»
Продолжительность: 01:58:05
Качество: BDRip [H.264]
Перевод: Профессиональный (многоголосый закадровый) (Омикрон)
Вид субтитров: вшитые, отключаемые
Язык субтитров: Русский (полные: Матвеев), Английский (полные, SDH, SDH цветные)
Видео: 1152x480 (2.40:1), 23.976 fps, MPEG-4 AVC / H.264, ~3500 kbps avg, 0.264 bit/pixel
Аудио #1: 48 kHz, AC3 Dolby Digital, 3/2 (L,C,R,l,r) + LFE ch, ~448 kbps avg (MVO.OMICRON)
Аудио #2: 48 kHz, AC3 Dolby Digital, 3/2 (L,C,R,l,r) + LFE ch, ~448 kbps avg (ENG)

MediaInfo

General
Unique ID                                : 252344275425945150310067491302666669715 (0xBDD7BD58A33B3CEEBC9EB097CEB80E93)
Complete name                            : Nightcrawler.2014.DUAL.BDRip-AVC.x264.AC3.mkv
Format                                   : Matroska
Format version                           : Version 2
File size                                : 3.63 GiB
Duration                                 : 1h 58mn
Overall bit rate                         : 4 399 Kbps
Encoded date                             : UTC 2015-06-27 19:06:10
Writing application                      : mkvmerge v5.2.0 ('I can't explain') built on Dec 18 2011 18:12:03
Writing library                          : libebml v1.2.3 + libmatroska v1.3.0
Attachment                               : Yes
Video
ID                                       : 1
Format                                   : AVC
Format/Info                              : Advanced Video Codec
Format profile                           : [email protected]
Format settings, CABAC                   : Yes
Format settings, ReFrames                : 14 frames
Codec ID                                 : V_MPEG4/ISO/AVC
Duration                                 : 1h 58mn
Bit rate                                 : 3 500 Kbps
Width                                    : 1 152 pixels
Height                                   : 480 pixels
Display aspect ratio                     : 2.40:1
Frame rate mode                          : Constant
Frame rate                               : 23.976 fps
Color space                              : YUV
Chroma subsampling                       : 4:2:0
Bit depth                                : 8 bits
Scan type                                : Progressive
Bits/(Pixel*Frame)                       : 0.264
Stream size                              : 2.82 GiB (78%)
Writing library                          : x264 core 146 r0+2586 e393126 t_mod_Custom [8-bi[email protected] X86_64]
Encoding settings                        : cabac=1 / ref=14 / deblock=1:-3:-2 / analyse=0x3:0x113 / me=umh / subme=9 / psy=1 / fade_compensate=0.00 / psy_rd=1.05:0.05 / mixed_ref=1 / me_range=32 / chroma_me=1 / trellis=2 / 8x8dct=1 / cqm=0 / deadzone=18,11 / fast_pskip=0 / chroma_qp_offset=-3 / threads=6 / lookahead_threads=2 / sliced_threads=0 / nr=0 / decimate=0 / interlaced=0 / bluray_compat=0 / constrained_intra=0 / fgo=2 / bframes=14 / b_pyramid=2 / b_adapt=2 / b_bias=0 / direct=3 / weightb=1 / open_gop=0 / weightp=2 / keyint=240 / keyint_min=23 / scenecut=40 / intra_refresh=0 / rc_lookahead=80 / rc=2pass / mbtree=0 / bitrate=3500 / ratetol=1.0 / qcomp=0.80 / qpmin=0:0:0 / qpmax=69:69:69 / qpstep=4 / cplxblur=20.0 / qblur=0.5 / vbv_maxrate=20000 / vbv_bufsize=25000 / nal_hrd=none / filler=0 / ip_ratio=1.40 / pb_ratio=1.24 / aq=2:0.50 / aq-sensitivity=10.00 / aq-factor=1.00:1.00:1.00 / aq2=0 / aq3=4:[0.50:0.50]:[0.50:0.50]:[0.50:0.50]:[0.50:0.50] / aq3-sensitivity=15.00 / aq3-factor=[1.00:1.00]:[1.00:1.00]:[1.00:1.00] / aq3-boundary=192:64:24
Language                                 : English
Default                                  : Yes
Forced                                   : No
Audio #1
ID                                       : 2
Format                                   : AC-3
Format/Info                              : Audio Coding 3
Mode extension                           : CM (complete main)
Format settings, Endianness              : Big
Codec ID                                 : A_AC3
Duration                                 : 1h 58mn
Bit rate mode                            : Constant
Bit rate                                 : 448 Kbps
Channel count                            : 6 channels
Channel positions                        : Front: L C R, Side: L R, LFE
Sampling rate                            : 48.0 KHz
Bit depth                                : 16 bits
Compression mode                         : Lossy
Stream size                              : 378 MiB (10%)
Title                                    : АС3 5.1 @ 448 kbps - MVO, Omicron
Language                                 : Russian
Default                                  : No
Forced                                   : No
Audio #2
ID                                       : 3
Format                                   : AC-3
Format/Info                              : Audio Coding 3
Mode extension                           : CM (complete main)
Format settings, Endianness              : Big
Codec ID                                 : A_AC3
Duration                                 : 1h 58mn
Bit rate mode                            : Constant
Bit rate                                 : 448 Kbps
Channel count                            : 6 channels
Channel positions                        : Front: L C R, Side: L R, LFE
Sampling rate                            : 48.0 KHz
Bit depth                                : 16 bits
Compression mode                         : Lossy
Stream size                              : 378 MiB (10%)
Title                                    : АС3 5.1 @ 448 kbps - Original
Language                                 : English
Default                                  : No
Forced                                   : No
Text #1
ID                                       : 4
Format                                   : UTF-8
Codec ID                                 : S_TEXT/UTF8
Codec ID/Info                            : UTF-8 Plain Text
Title                                    : Full, Matveev [Uncensored]
Language                                 : Russian
Default                                  : No
Forced                                   : No
Text #2
ID                                       : 5
Format                                   : UTF-8
Codec ID                                 : S_TEXT/UTF8
Codec ID/Info                            : UTF-8 Plain Text
Title                                    : Full
Language                                 : English
Default                                  : No
Forced                                   : No
Text #3
ID                                       : 6
Format                                   : UTF-8
Codec ID                                 : S_TEXT/UTF8
Codec ID/Info                            : UTF-8 Plain Text
Title                                    : SDH
Language                                 : English
Default                                  : No
Forced                                   : No
Text #4
ID                                       : 7
Format                                   : UTF-8
Codec ID                                 : S_TEXT/UTF8
Codec ID/Info                            : UTF-8 Plain Text
Title                                    : SDH Colored
Language                                 : English
Default                                  : No
Forced                                   : No
Menu
00:00:00.000                             : :Chapter 01
00:06:23.591                             : :Chapter 02
00:11:21.889                             : :Chapter 03
00:16:14.932                             : :Chapter 04
00:23:48.260                             : :Chapter 05
00:30:45.301                             : :Chapter 06
00:36:26.642                             : :Chapter 07
00:42:41.141                             : :Chapter 08
00:46:51.975                             : :Chapter 09
00:53:12.314                             : :Chapter 10
01:00:49.354                             : :Chapter 11
01:07:23.039                             : :Chapter 12
01:13:00.918                             : :Chapter 13
01:18:18.068                             : :Chapter 14
01:25:00.720                             : :Chapter 15
01:29:18.686                             : :Chapter 16
01:36:10.848                             : :Chapter 17
01:44:48.573                             : :Chapter 18
01:48:30.712                             : :Chapter 19
01:53:38.311                             : :Chapter 20
01:57:57.862                             : :Chapter 21

Награды и премии

Оскар, 2015 год
Номинации (1):
Лучший сценарий
Золотой глобус, 2015 год
Номинации (1):
Лучшая мужская роль (драма) (Джейк Джилленхол)
Британская академия, 2015 год
Номинации (4):
Лучшая мужская роль (Джейк Джилленхол)
Лучшая женская роль второго плана (Рене Руссо)
Лучший оригинальный сценарий
Лучший монтаж
Премия Гильдии актеров, 2015 год
Номинации (1):
Лучшая мужская роль (Джейк Джилленхол)

Знаете ли вы, что...

• Готовясь к своей роли, Джейк Джилленхол сбросил почти 15 кг.
Скриншоты:
Не жилим спасибо. Не забываем голосовать за трекер!!!

Топик был перенесен из форума Триллер в форум Зарубежные кино 2011-2014
LEONARDO

Топик был перенесен из форума Сортировка в форум Боевик / Триллер
killer110289


Показать сообщения:    

Текущее время: 20-Ноя 16:24

Часовой пояс: UTC + 3


Вы не можете начинать темы
Вы не можете отвечать на сообщения
Вы не можете редактировать свои сообщения
Вы не можете удалять свои сообщения
Вы не можете голосовать в опросах
Вы не можете прикреплять файлы к сообщениям
Вы не можете скачивать файлы

!ВНИМАНИЕ!
Сайт не предоставляет электронные версии произведений, а занимается лишь коллекционированием и каталогизацией ссылок, присылаемых и публикуемых на форуме нашими читателями. Если вы являетесь правообладателем какого-либо представленного материала и не желаете, чтобы ссылка на него находилась в нашем каталоге, свяжитесь с нами, и мы незамедлительно удалим ее. Файлы для обмена на трекере предоставлены пользователями сайта, и администрация не несет ответственности за их содержание. Просьба не заливать файлы, защищенные авторскими правами, а также файлы нелегального содержания!