[Цитировать]

Год выпуска: 2015
Страна: Великобритания
Жанр: Авто-шоу,документальный, ток-шоу, комедия.
Продолжительность: 01:02:12
Перевод: Перевод #1: Многоголосый закадровый - Gears Media
Перевод #2: Многоголосый закадровый - Jetvis Studio & RG.paravozik

Перевод #3: Многоголосый закадровый - AlexFilm
Субтитры: нет
Режиссер:Брайан Клейн, Фил Чурчуорд, Найджел Симпкисс, ...
Продюсер: Энди Уилман, Алекс Рентон, Грант Уордроп, ...
Композитор: Кристиан Хенсон
Художник: Джонатан Пол Грин, Джеймс Роуэлл, Саймон Киммел
Монтаж: Дэн Джеймс, Гай Савин, Джеймс Харт
В ролях: Ричард Хаммонд / Richard Hammond (играет самого себя - Presenter), Джереми Кларксон / Jeremy Clarkson (играет самого себя - Presenter), Джеймс Мэй / James May (играет самого себя - Presenter) , Стиг / The Stig (играет самого себя),
Описание: Джереми, Ричард и Джеймс с неподражаемым юмором рассказывают о самых значимых и интересных новинках автомобильного мира.
--Рип чистый. Без посторонних надписей
Качество: HDTVRip
Формат: AVI
Видео кодек: XviD
Аудио кодеk: MP3
Видео: 656x368 (16:9), 25.000 fps, XviD 73, 1175 Kbps
Аудио
: Аудио #1: MP3, 128 Kbps, 48.0 KHz, 2 ch -Gears Media
Аудио #2: MP3, 128 Kbps, 48.0 KHz, 2 ch -Jetvis Studio & RG.paravozik
Аудио #3: MP3, 128 Kbps, 48.0 KHz, 2 ch -Eng
Аудио #3: MP3, 128 Kbps, 48.0 KHz, 2 ch - |AlexFilm

МедиаИнфо

Общее
бщее
Полное имя : E:Top Gear 221.avi
Формат : AVI
Формат/Информация : Audio Video Interleave
Размер файла : 762 Мбайт
Продолжительность : 1 ч. 2 м.
Общий поток : 1710 Кбит/сек
Название фильма : 111
Автор : S.c.a.r.a.b.e.y aka Semak aka Scorpiоn
Программа кодирования : VirtualDubMod 1.5.10.3 | www.virtualdub-fr.org || (build 2550/release)
Видео
Идентификатор : 0
Формат : MPEG-4 Visual
Профиль формата : Advanced [email protected]
Параметр BVOP формата : 1
Параметр QPel формата : Нет
Параметр GMC формата : Без точки перехода
Параметр матрицы формата : Default (H.263)
Идентификатор кодека : XVID
Идентификатор кодека/Подсказка : XviD
Продолжительность : 1 ч. 2 м.
Битрейт : 1175 Кбит/сек
Ширина : 656 пикселей
Высота : 368 пикселей
Соотношение сторон : 16:9
Частота кадров : 25,000 кадров/сек
Цветовое пространство : YUV
Субдискретизация насыщенности : 4:2:0
Битовая глубина : 8 бит
Тип развёртки : Прогрессивная
Метод сжатия : С потерями
Бит/(Пиксели*Кадры) : 0.195
Размер потока : 524 Мбайт (69%)
Библиотека кодирования : XviD 73
Аудио #1
Идентификатор : 1
Формат : MPEG Audio
Версия формата : Version 1
Профиль формата : Layer 3
Идентификатор кодека : 55
Идентификатор кодека/Подсказка : MP3
Продолжительность : 1 ч. 1 м.
Вид битрейта : Постоянный
Битрейт : 128 Кбит/сек
Каналы : 2 канала
Частота : 48,0 КГц
Метод сжатия : С потерями
Размер потока : 56,7 Мбайт (7%)
Выравнивание : Соединение по промежуткам
Продолжительность промежутка : 40 мс. (1,01 видеокадр)
Время предзагрузки промежутка : 504 мс.
Заголовок : Gears Media
Библиотека кодирования : LAME3.99r
Настройки программы : -m s -V 4 -q 2 -lowpass 17 -b 128
Аудио #2
Идентификатор : 2
Формат : MPEG Audio
Версия формата : Version 1
Профиль формата : Layer 3
Идентификатор кодека : 55
Идентификатор кодека/Подсказка : MP3
Продолжительность : 1 ч. 1 м.
Вид битрейта : Постоянный
Битрейт : 128 Кбит/сек
Каналы : 2 канала
Частота : 48,0 КГц
Метод сжатия : С потерями
Размер потока : 56,7 Мбайт (7%)
Выравнивание : Соединение по промежуткам
Продолжительность промежутка : 40 мс. (1,01 видеокадр)
Время предзагрузки промежутка : 504 мс.
Заголовок : Jetvis Studio & RG.paravozik
Библиотека кодирования : LAME3.99r
Настройки программы : -m s -V 4 -q 2 -lowpass 17 -b 128
Аудио #3
Идентификатор : 3
Формат : MPEG Audio
Версия формата : Version 1
Профиль формата : Layer 3
Идентификатор кодека : 55
Идентификатор кодека/Подсказка : MP3
Продолжительность : 1 ч. 2 м.
Вид битрейта : Постоянный
Битрейт : 128 Кбит/сек
Каналы : 2 канала
Частота : 48,0 КГц
Метод сжатия : С потерями
Размер потока : 57,0 Мбайт (7%)
Выравнивание : Соединение по промежуткам
Продолжительность промежутка : 40 мс. (1,00 видеокадр)
Время предзагрузки промежутка : 504 мс.
Заголовок : AlexFilm
Аудио #4
Идентификатор : 4
Формат : MPEG Audio
Версия формата : Version 1
Профиль формата : Layer 3
Идентификатор кодека : 55
Идентификатор кодека/Подсказка : MP3
Продолжительность : 1 ч. 2 м.
Вид битрейта : Постоянный
Битрейт : 128 Кбит/сек
Каналы : 2 канала
Частота : 48,0 КГц
Метод сжатия : С потерями
Размер потока : 57,0 Мбайт (7%)
Выравнивание : Соединение по промежуткам
Продолжительность промежутка : 40 мс. (1,00 видеокадр)
Время предзагрузки промежутка : 504 мс.
Библиотека кодирования : LAME3.99r
Настройки программы : -m s -V 4 -q 2 -lowpass 17 -b 128

Внимание! Раздача ведется путем добавления новых серий!

Чтобы начать докачку новой серии, пользователям необходимо сделать следующее:
1) Остановить скачивание,
2) Удалить старый торрент у себя из клиента - старые серии удалять не надо!
3) Скачать новый торрент и запустить его у себя в клиенте вместо старого, при этом указать клиенту путь в старую папку куда и должно происходить скачивание новых серий.
Ваш клиент при этом должен произвести хеширование старой папки (если это не произойдет - нажмите "Обновить хеш"), и будет докачивать только те серии которых у вас ещё нет. Старые файлы при этом не удаляются, а продолжают раздаваться!
По возможности, желательно не удалять старые серии как можно дольше, чтобы релизер не столько продолжал раздавать старые материалы, а смог сконцентрироваться на новых.
Не жилим спасибо. Не забываем голосовать за трекер!!!

[Цитировать]


ag af ag


Показать сообщения:    

Текущее время: 21-Ноя 20:03

Часовой пояс: UTC + 3


Вы не можете начинать темы
Вы не можете отвечать на сообщения
Вы не можете редактировать свои сообщения
Вы не можете удалять свои сообщения
Вы не можете голосовать в опросах
Вы не можете прикреплять файлы к сообщениям
Вы не можете скачивать файлы

!ВНИМАНИЕ!
Сайт не предоставляет электронные версии произведений, а занимается лишь коллекционированием и каталогизацией ссылок, присылаемых и публикуемых на форуме нашими читателями. Если вы являетесь правообладателем какого-либо представленного материала и не желаете, чтобы ссылка на него находилась в нашем каталоге, свяжитесь с нами, и мы незамедлительно удалим ее. Файлы для обмена на трекере предоставлены пользователями сайта, и администрация не несет ответственности за их содержание. Просьба не заливать файлы, защищенные авторскими правами, а также файлы нелегального содержания!