[Цитировать]

Работорговля / Skin Trade (2014) BDRip
« Blood for blood »
- Производство: Таиланд, Канада, США | Fox Digital Studios
Жанр: Боевик, Триллер, Криминал
Режиссер: Экачай Уэкронгтам
Продюсер: Крэйг Баумгартен, Дольф Лундгрен
Актеры: Рон Перлман, Дольф Лундгрен, Питер Уэллер, Майкл Джей Уайт, Тони Джа, Селина Жаде, Конан Стивенс, Кэри-Хироюки Тагава, Тася Телес, Майк Допуд
Описание:
Подпольная, теневая торговля, чёрный рынок — синонимы одной из острейших и наболевших проблем современного общества. Но сбыт человеческих органов — ещё более страшная реальность, с которой сталкивается герой столь непростой истории. Полицейский-детектив расследует дело о похищении и вероятности продажи «на органы» одной девушки.

Дата мировой премьеры: 7 ноября 2014
Продолжительность: 01:36:17
Качество видео: BDRip
Перевод: Двуголосый закадровый, любительский
Озвучка / Автор перевода: ColdFilm
Субтитры: Вшитые отключаемые
Язык субтитров: Английский (full)
Видео: AVC/H.264, 1920х800 (2.40:1), 23.976 fps, ~10.5 Mbps, 0.285 bit/pixel
Аудио №1: 48 kHz, AC3, 2 ch, ~384 kbps, CBR | Русский (любительский)
Аудио №2: 48 kHz, DTS, 6 ch, ~1509 kbps, CBR | Английский
Семпл: Скачать

Mediainfo:

General
Unique ID                      : 224288049252059165203940280329097055608 (0xA8BC4E990301F0DFAB3506C7318A0D78)
Complete name                  : C:\Фильмы\Rabotorgovlja.2014.BDRip.1080p.mkv
Format                         : Matroska
Format version                 : Version 2
File size                      : 8.33 GiB
Duration                       : 1h 36mn
Overall bit rate               : 12.4 Mbps
Movie name                     : Skin Trade. 2014
Encoded date                   : UTC 2015-06-22 14:32:11
Writing application            : mkvmerge v5.8.0 ('No Sleep / Pillow') built on Sep  2 2012 15:37:04
Writing library                : libebml v1.2.3 + libmatroska v1.3.0
Video
ID                             : 1
Format                         : AVC
Format/Info                    : Advanced Video Codec
Format profile                 : [email protected]
Format settings, CABAC         : Yes
Format settings, ReFrames      : 5 frames
Codec ID                       : V_MPEG4/ISO/AVC
Duration                       : 1h 36mn
Bit rate                       : 10.5 Mbps
Width                          : 1 920 pixels
Height                         : 800 pixels
Display aspect ratio           : 2.40:1
Frame rate mode                : Constant
Frame rate                     : 23.976 fps
Color space                    : YUV
Chroma subsampling             : 4:2:0
Bit depth                      : 8 bits
Scan type                      : Progressive
Bits/(Pixel*Frame)             : 0.285
Stream size                    : 6.89 GiB (83%)
Title                          : WiKi
Writing library                : x264 core 142 r2479 dd79a61
Encoding settings              : cabac=1 / ref=5 / deblock=1:-3:-3 / analyse=0x3:0x133 / me=umh / subme=11 / psy=1 / psy_rd=1.00:0.10 / mixed_ref=1 / me_range=64 / chroma_me=1 / trellis=2 / 8x8dct=1 / cqm=0 / deadzone=21,11 / fast_pskip=0 / chroma_qp_offset=-3 / threads=12 / lookahead_threads=3 / sliced_threads=0 / nr=0 / decimate=0 / interlaced=0 / bluray_compat=0 / constrained_intra=0 / bframes=12 / b_pyramid=2 / b_adapt=2 / b_bias=0 / direct=3 / weightb=1 / open_gop=0 / weightp=2 / keyint=250 / keyint_min=23 / scenecut=40 / intra_refresh=0 / rc_lookahead=80 / rc=2pass / mbtree=1 / bitrate=10500 / ratetol=1.0 / qcomp=0.70 / qpmin=0 / qpmax=69 / qpstep=4 / cplxblur=20.0 / qblur=0.5 / vbv_maxrate=38000 / vbv_bufsize=30000 / nal_hrd=none / filler=0 / ip_ratio=1.40 / aq=1:0.80
Language                       : English
Default                        : Yes
Forced                         : No
Audio #1
ID                             : 2
Format                         : AC-3
Format/Info                    : Audio Coding 3
Mode extension                 : CM (complete main)
Format settings, Endianness    : Big
Codec ID                       : A_AC3
Duration                       : 1h 36mn
Bit rate mode                  : Constant
Bit rate                       : 384 Kbps
Channel(s)                     : 2 channels
Channel positions              : Front: L R
Sampling rate                  : 48.0 KHz
Bit depth                      : 16 bits
Compression mode               : Lossy
Stream size                    : 264 MiB (3%)
Title                          : L2 | ColdFilm
Language                       : Russian
Default                        : Yes
Forced                         : No
Audio #2
ID                             : 3
Format                         : DTS
Format/Info                    : Digital Theater Systems
Mode                           : 16
Format settings, Endianness    : Big
Codec ID                       : A_DTS
Duration                       : 1h 36mn
Bit rate mode                  : Constant
Bit rate                       : 1 509 Kbps
Channel(s)                     : 6 channels
Channel positions              : Front: L C R, Side: L R, LFE
Sampling rate                  : 48.0 KHz
Bit depth                      : 16 bits
Compression mode               : Lossy
Stream size                    : 1.01 GiB (12%)
Title                          : Original
Language                       : English
Default                        : No
Forced                         : No
Text
ID                             : 4
Format                         : UTF-8
Codec ID                       : S_TEXT/UTF8
Codec ID/Info                  : UTF-8 Plain Text
Title                          : Full
Language                       : English
Default                        : No
Forced                         : No
Menu
00:00:00.000                   : en:00:00:00.000
00:08:44.107                   : en:00:08:44.107
00:19:09.732                   : en:00:19:09.732
00:26:18.827                   : en:00:26:18.827
00:32:01.461                   : en:00:32:01.461
00:39:37.000                   : en:00:39:37.000
00:47:43.569                   : en:00:47:43.569
00:56:18.959                   : en:00:56:18.959
01:04:25.445                   : en:01:04:25.445
01:16:29.376                   : en:01:16:29.376
01:21:04.860                   : en:01:21:04.860
01:29:02.921                   : en:01:29:02.921
Скриншоты:
Не жилим спасибо. Не забываем голосовать за трекер!!!


Показать сообщения:    

Текущее время: 17-Ноя 15:51

Часовой пояс: UTC + 3


Вы не можете начинать темы
Вы не можете отвечать на сообщения
Вы не можете редактировать свои сообщения
Вы не можете удалять свои сообщения
Вы не можете голосовать в опросах
Вы не можете прикреплять файлы к сообщениям
Вы не можете скачивать файлы

!ВНИМАНИЕ!
Сайт не предоставляет электронные версии произведений, а занимается лишь коллекционированием и каталогизацией ссылок, присылаемых и публикуемых на форуме нашими читателями. Если вы являетесь правообладателем какого-либо представленного материала и не желаете, чтобы ссылка на него находилась в нашем каталоге, свяжитесь с нами, и мы незамедлительно удалим ее. Файлы для обмена на трекере предоставлены пользователями сайта, и администрация не несет ответственности за их содержание. Просьба не заливать файлы, защищенные авторскими правами, а также файлы нелегального содержания!