[Цитировать]

Информация о фильме
Название: Тайна четырех принцесс
Год выхода: 2014
Жанр: комедия, фэнтези
Режиссер: Олег Штром
В ролях: Кристина Орбакайте, Сергей Жигунов, Александр Стриженов, Юрий Гальцев, Юлия Паршута, Дмитрий Бурукин, Андрей Федорцов, Сергей Степанченко, Сергей Дорогов, Вадим Галыгин
О фильме:
В некотором царстве, в некотором государстве жил-был весёлый и добрый портной по имени Ганс. Он был молод и не очень богат, а если точнее практически беден, и жители царства-государства звали его просто портняжка Ганс. По воле судьбы он оказывается во дворце короля, который поручает Гансу раскрыть тайну своих дочерей — молодых принцесс, которые каждую ночь куда-то исчезают. А в это время в другом царстве королева Гурунда решила женить своих принцев-сыновей на дочерях соседних сказочно богатых королей. Но беда в том, что сами сыновья уже выбрали себе невест. Отказ сыновей повиноваться вызвал у Гурунды ярость. Она в сердцах проклинает их и превращает в воронов, оставив им только несколько часов на пребывание в человеческом облике — с полночи до трех утра.- -Страна: Россия
Студия: КАРО-Продакшн
Продолжительность: 87 мин. / 01:27
Перевод: не требуется-Файл
Кодек: MPEG2
Качество: DVD5
Видео: PAL 16:9 ([email protected]) CBR 6500 Kbps, 25.000 fps
Аудио: Dolby AC3, 6 ch, 48.0 KHz, 448 Кbps
Субтитры: отсутствуют-

MediaInfo

Общее
Полное имя : E:Tajna.4.printsess.2014.DVD5VIDEO_TSVTS_03_1.VOB
Формат : MPEG-PS
Размер файла : 1024 Мбайт
Продолжительность : 20 м.
Общий поток : 7070 Кбит/сек
Видео
Идентификатор : 224 (0xE0)
Формат : MPEG Video
Версия формата : Version 2
Профиль формата : [email protected]
Параметр BVOP формата : Да
Параметр матрицы формата : Выборочная
Параметр GOP формата : Variable
Структура изображения : Frame
Продолжительность : 20 м.
Битрейт : 6500 Кбит/сек
Ширина : 720 пикселей
Высота : 576 пикселей
Соотношение сторон : 16:9
Частота кадров : 25,000 кадров/сек
Стандарт вещания : PAL
Цветовое пространство : YUV
Субдискретизация насыщенности : 4:2:0
Битовая глубина : 8 бит
Тип развёртки : Чересстрочная
Порядок развёртки : Верхнее поле первое
Метод сжатия : С потерями
Бит/(Пиксели*Кадры) : 0.627
Временной код первого кадра : 00:00:00:00
Оригинал временного кода : Group of pictures header
GOP, открыто/закрыто : Открыто
GOP, открыто/закрыто на первом кадре : Закрыто
Размер потока : 939 Мбайт (92%)
Аудио
Идентификатор : 189 (0xBD)-128 (0x80)
Формат : AC-3
Формат/Информация : Audio Coding 3
Расширение режима : CM (complete main)
Параметр Endianness формата : Big
Режим смешивания : DVD-Video
Продолжительность : 20 м.
Вид битрейта : Постоянный
Битрейт : 448 Кбит/сек
Каналы : 6 каналов
Расположение каналов : Front: L C R, Side: L R, LFE
Частота : 48,0 КГц
Метод сжатия : С потерями
Размер потока : 64,9 Мбайт (6%)
Меню

Скриншоты


Не жилим спасибо. Не забываем голосовать за трекер!!!


Показать сообщения:    

Текущее время: 22-Сен 02:54

Часовой пояс: UTC + 3


Вы не можете начинать темы
Вы не можете отвечать на сообщения
Вы не можете редактировать свои сообщения
Вы не можете удалять свои сообщения
Вы не можете голосовать в опросах
Вы не можете прикреплять файлы к сообщениям
Вы не можете скачивать файлы

!ВНИМАНИЕ!
Сайт не предоставляет электронные версии произведений, а занимается лишь коллекционированием и каталогизацией ссылок, присылаемых и публикуемых на форуме нашими читателями. Если вы являетесь правообладателем какого-либо представленного материала и не желаете, чтобы ссылка на него находилась в нашем каталоге, свяжитесь с нами, и мы незамедлительно удалим ее. Файлы для обмена на трекере предоставлены пользователями сайта, и администрация не несет ответственности за их содержание. Просьба не заливать файлы, защищенные авторскими правами, а также файлы нелегального содержания!