[Цитировать]

Год выпуска: 2015
Оригинальное название: Run All Night
Страна: США
Жанр: боевик, криминал, драма
Продолжительность: 01:54:21
Перевод: Дублированный
Режиссер: Хауме Кольет-Серра
В ролях: Лиам Нисон, Юэль Киннаман, Коммон, Эд Харрис, Бойд Холбрук, Брюс МакГилл, Дженезис Родригез, Винсент Д`Онофрио, Луис Смит, Бо Напп, Патриция Кэлембер, Дэниэл Стюарт-Шерман, Джеймс Мартинес, Радивойе Буквич, Тони Наумовски, Лиза Бренч, Холт МакКэллани, Обри Джозеф, Джулия Чичиари, Керрингтон Мейер
Описание: Фильм расскажет историю киллера, вступившего в конфликт с бывшим боссом и в итоге вынужденного пуститься в бега, чтобы защитить свою семью от преследования мафией и властями.

Видео кодек: MPEG-4 AVC
Качество: BDRip 720p
Параметры Видео: 1280x536, 23.976 fps; ~2 358 kbps avg
Параметры Звука: 44.1 KHz, AAC, ~149.00 kbps avg, 2ch
Формат: mp4
Автор рипа:
Релиз-группа:

Meta Tags

MI

General
Complete name : E:Nochnoj_beglec.2015.D.BDRip.720p_KinoGadget.and.KinoXa.mp4
Format : MPEG-4
Format profile : Base Media
Codec ID : isom
File size : 2.01 GiB
Duration : 1h 54mn
Overall bit rate mode : Variable
Overall bit rate : 2 515 Kbps
Movie name : Ночной беглец
Performer : Хауме Кольет-Серра
Genre : Action, Crime, Drama
ContentType : Short Film
Recorded date : 2015
Encoded date : UTC 2015-07-02 16:28:09
Tagged date : UTC 2015-07-02 17:16:41
Cover : Yes
ContentRating : mpaa|R|400|
LongDeion : Фильм расскажет историю киллера, вступившего в конфликт с бывшим боссом и в итоге вынужденного пуститься в бега, чтобы защитить свою семью от преследования мафией и властями.
HDVideo : Yes
Video
ID : 1
Format : AVC
Format/Info : Advanced Video Codec
Format profile : [email protected]
Format settings, CABAC : Yes
Format settings, ReFrames : 11 frames
Codec ID : avc1
Codec ID/Info : Advanced Video Coding
Duration : 1h 54mn
Bit rate : 2 358 Kbps
Maximum bit rate : 15.6 Mbps
Width : 1 280 pixels
Height : 536 pixels
Display aspect ratio : 2.40:1
Frame rate mode : Constant
Frame rate : 23.976 fps
Color space : YUV
Chroma subsampling : 4:2:0
Bit depth : 8 bits
Scan type : Progressive
Bits/(Pixel*Frame) : 0.143
Stream size : 1.88 GiB (94%)
Writing library : x264 core 146 r2538 121396c
Encoding settings : cabac=1 / ref=11 / deblock=1:-1:-1 / analyse=0x3:0x133 / me=umh / subme=9 / psy=1 / psy_rd=1.00:0.00 / mixed_ref=1 / me_range=24 / chroma_me=1 / trellis=2 / 8x8dct=1 / cqm=0 / deadzone=21,11 / fast_pskip=1 / chroma_qp_offset=-2 / threads=3 / lookahead_threads=1 / sliced_threads=0 / nr=0 / decimate=1 / interlaced=0 / bluray_compat=0 / constrained_intra=0 / bframes=4 / b_pyramid=2 / b_adapt=2 / b_bias=0 / direct=3 / weightb=1 / open_gop=0 / weightp=2 / keyint=240 / keyint_min=23 / scenecut=40 / intra_refresh=0 / rc_lookahead=60 / rc=crf / mbtree=1 / crf=21.0 / qcomp=0.60 / qpmin=0 / qpmax=69 / qpstep=4 / ip_ratio=1.40 / aq=1:1.50
Encoded date : UTC 2015-07-02 15:42:58
Tagged date : UTC 2015-07-02 16:28:57
Audio
ID : 2
Format : AAC
Format/Info : Advanced Audio Codec
Format profile : LC
Codec ID : 40
Duration : 1h 54mn
Bit rate mode : Variable
Bit rate : 149 Kbps
Maximum bit rate : 226 Kbps
Channel count : 2 channels
Channel positions : Front: L R
Sampling rate : 44.1 KHz
Compression mode : Lossy
Stream size : 122 MiB (6%)
Language : Russian
Encoded date : UTC 2015-07-02 16:28:43
Tagged date : UTC 2015-07-02 16:28:57

Скриншоты

Не жилим спасибо. Не забываем голосовать за трекер!!!


Показать сообщения:    

Текущее время: 22-Сен 02:25

Часовой пояс: UTC + 3


Вы не можете начинать темы
Вы не можете отвечать на сообщения
Вы не можете редактировать свои сообщения
Вы не можете удалять свои сообщения
Вы не можете голосовать в опросах
Вы не можете прикреплять файлы к сообщениям
Вы не можете скачивать файлы

!ВНИМАНИЕ!
Сайт не предоставляет электронные версии произведений, а занимается лишь коллекционированием и каталогизацией ссылок, присылаемых и публикуемых на форуме нашими читателями. Если вы являетесь правообладателем какого-либо представленного материала и не желаете, чтобы ссылка на него находилась в нашем каталоге, свяжитесь с нами, и мы незамедлительно удалим ее. Файлы для обмена на трекере предоставлены пользователями сайта, и администрация не несет ответственности за их содержание. Просьба не заливать файлы, защищенные авторскими правами, а также файлы нелегального содержания!