[Цитировать]

Башни-близнецы / World Trade Center
«Реальная история мужества и выживания»
Русское название: Башни-близнецы
Оригинальное название: World Trade Center
Год выпуска: 2006
Жанр: триллер, драма, история
Выпущено: США
Режиссер: Оливер Стоун
В ролях: Николас Кейдж , Майкл Пенья , Мэгги Джилленхол , Мария Белло , Стивен Дорфф , Джей Эрнандес , Майкл Шеннон , Джуд Чикколелла , Коннор Паоло , Энтони Пиччининни , Алекса Герасимович , Морган Флинн
Перевод: Дублированный - [Лицензия], Профессиональный (двухголосый) [П.Гланц и И.Королева]

Сюжет фильма:
История героической борьбы за жизнь двух полицейских из Порт Оторити - Джона МакЛофлина и Уилла Химено, которые оказались под обломками упавшей башни Всемирного торгового центра 11 сентября 2001 года, после того, как они сами были направлены к месту теракта для помощи пострадавшим...

Качество: BDRip 1080p
Формат: AVC (библиотека кодирования x.264)
Контейнер (Расширение): MKV
Видео: 1920x1080, 11250 Кбит/сек, 23,976 кадр/сек, 0,226 Бит/[Пиксели*Кадры]
Аудио №1: русский / AC3 / 5.1 / 48 kHz / 448 kbps / |Дублированный|
Аудио №2: русский / AC3 / 5.1 / 48 kHz / 448 kbps / |Профессиональный (двухголосый), П.Гланц и И.Королева|
Аудио №3: английский / AC3 / 5.1 / 48 kHz / 640 kbps /
Субтитры: русские, английские
Навигация по главам(Чаптеры): есть
Продолжительность: 02:09:08
Автор рипа: Сообщество:

MediaInfo

Format : Matroska
Format version : Version 2
File size : 11.5 GiB
Duration : 2h 9mn
Overall bit rate : 12.8 Mbps
Movie name : Bashni-bliznecy.(2006).BDRip.1080p.[denis100]
Encoded date : UTC 2015-07-01 13:56:05
Writing application : mkvmerge v5.8.0 ('No Sleep / Pillow') built on Sep 2 2012 15:37:04
Writing library : libebml v1.2.3 + libmatroska v1.3.0
Video
ID : 1
Format : AVC
Format/Info : Advanced Video Codec
Format profile : [email protected]
Format settings, CABAC : Yes
Format settings, ReFrames : 4 frames
Codec ID : V_MPEG4/ISO/AVC
Duration : 2h 9mn
Bit rate : 11.3 Mbps
Width : 1 920 pixels
Height : 1 080 pixels
Display aspect ratio : 16:9
Frame rate : 23.976 fps
Color space : YUV
Chroma subsampling : 4:2:0
Bit depth : 8 bits
Scan type : Progressive
Bits/(Pixel*Frame) : 0.226
Stream size : 9.91 GiB (86%)
Title : Bashni-bliznecy.(2006).BDRip.1080p.[denis100]
Writing library : x264 core 146 r2538 121396c
Encoding settings : cabac=1 / ref=4 / deblock=1:-3:-3 / analyse=0x3:0x133 / me=umh / subme=11 / psy=1 / psy_rd=1.00:0.05 / mixed_ref=1 / me_range=32 / chroma_me=1 / trellis=2 / 8x8dct=1 / cqm=0 / deadzone=21,11 / fast_pskip=0 / chroma_qp_offset=-3 / threads=6 / lookahead_threads=1 / sliced_threads=0 / nr=0 / decimate=1 / interlaced=0 / bluray_compat=0 / constrained_intra=0 / bframes=8 / b_pyramid=2 / b_adapt=2 / b_bias=0 / direct=3 / weightb=1 / open_gop=0 / weightp=2 / keyint=240 / keyint_min=23 / scenecut=40 / intra_refresh=0 / rc=2pass / mbtree=0 / bitrate=11250 / ratetol=1.0 / qcomp=0.60 / qpmin=0 / qpmax=69 / qpstep=4 / cplxblur=20.0 / qblur=0.5 / ip_ratio=1.40 / pb_ratio=1.30 / aq=1:1.00
Language : English
Default : Yes
Forced : No
Audio #1
ID : 2
Format : AC-3
Format/Info : Audio Coding 3
Mode extension : CM (complete main)
Codec ID : A_AC3
Duration : 2h 9mn
Bit rate mode : Constant
Bit rate : 448 Kbps
Channel(s) : 6 channels
Channel positions : Front: L C R, Side: L R, LFE
Sampling rate : 48.0 KHz
Bit depth : 16 bits
Compression mode : Lossy
Stream size : 414 MiB (4%)
Title : Дубляж
Language : Russian
Default : Yes
Forced : No
Audio #2
ID : 3
Format : AC-3
Format/Info : Audio Coding 3
Mode extension : CM (complete main)
Codec ID : A_AC3
Duration : 2h 9mn
Bit rate mode : Constant
Bit rate : 448 Kbps
Channel(s) : 6 channels
Channel positions : Front: L C R, Side: L R, LFE
Sampling rate : 48.0 KHz
Bit depth : 16 bits
Compression mode : Lossy
Stream size : 414 MiB (4%)
Title : П.Гланц и И.Королева
Language : Russian
Default : No
Forced : No
Audio #3
ID : 4
Format : AC-3
Format/Info : Audio Coding 3
Mode extension : CM (complete main)
Codec ID : A_AC3
Duration : 2h 9mn
Bit rate mode : Constant
Bit rate : 640 Kbps
Channel(s) : 6 channels
Channel positions : Front: L C R, Side: L R, LFE
Sampling rate : 48.0 KHz
Bit depth : 16 bits
Compression mode : Lossy
Stream size : 591 MiB (5%)
Language : English
Default : No
Forced : No
Text #1
ID : 5
Format : UTF-8
Codec ID : S_TEXT/UTF8
Codec ID/Info : UTF-8 Plain Text
Language : Russian
Default : No
Forced : No
Text #2
ID : 6
Format : UTF-8
Codec ID : S_TEXT/UTF8
Codec ID/Info : UTF-8 Plain Text
Language : English
Default : No
Forced : No
Menu
00:00:00.000 : en:00:00:00.000
00:07:09.887 : en:00:07:09.887
00:10:47.855 : en:00:10:47.855
00:14:57.238 : en:00:14:57.238
00:19:35.173 : en:00:19:35.173
00:25:23.521 : en:00:25:23.521
00:36:42.701 : en:00:36:42.701
00:41:12.094 : en:00:41:12.094
00:45:32.311 : en:00:45:32.311
00:52:01.452 : en:00:52:01.452
00:58:04.106 : en:00:58:04.106
01:03:54.867 : en:01:03:54.867
01:07:44.804 : en:01:07:44.804
01:11:44.086 : en:01:11:44.086
01:15:54.543 : en:01:15:54.543
01:20:29.819 : en:01:20:29.819
01:25:12.448 : en:01:25:12.448
01:31:14.726 : en:01:31:14.726
01:35:00.327 : en:01:35:00.327
01:41:57.577 : en:01:41:57.577
01:49:32.239 : en:01:49:32.239
01:54:37.545 : en:01:54:37.545

x264

x264 [info]: frame I:1064 Avg QP:15.20 size:193850
x264 [info]: frame P:41243 Avg QP:18.10 size:100248
x264 [info]: frame B:143479 Avg QP:20.03 size: 45590

Скриншоты

Не жилим спасибо. Не забываем голосовать за трекер!!!

Топик был перенесен из форума Триллер в форум Зарубежное кино (HD Video)
LEONARDO


Показать сообщения:    

Текущее время: 20-Ноя 22:50

Часовой пояс: UTC + 3


Вы не можете начинать темы
Вы не можете отвечать на сообщения
Вы не можете редактировать свои сообщения
Вы не можете удалять свои сообщения
Вы не можете голосовать в опросах
Вы не можете прикреплять файлы к сообщениям
Вы не можете скачивать файлы

!ВНИМАНИЕ!
Сайт не предоставляет электронные версии произведений, а занимается лишь коллекционированием и каталогизацией ссылок, присылаемых и публикуемых на форуме нашими читателями. Если вы являетесь правообладателем какого-либо представленного материала и не желаете, чтобы ссылка на него находилась в нашем каталоге, свяжитесь с нами, и мы незамедлительно удалим ее. Файлы для обмена на трекере предоставлены пользователями сайта, и администрация не несет ответственности за их содержание. Просьба не заливать файлы, защищенные авторскими правами, а также файлы нелегального содержания!