[Цитировать]

Информация о фильме
Название: Всё только начинается
Год выхода: 2015
Жанр: Мелодрама
Режиссер: Дмитрий Кузьмин
В ролях: Любовь Баханкова, Анатолий Руденко, Дмитрий Пчела, Иван Шабалтас, Марина Есипенко, Ирина Шеянова, Тимофей Каратаев, Александр Туманов, Ирина Вербицкая, Алина Ольшанская, Ольга Николаева (IV), Александр Денисов (III), Юрий Дуванов, Владимир Зайцев, Андрей Харенко, Евгений Березовский, Андрей Булатов
О фильме: Маша ведет тихую, скромную жизнь в маленьком городке.Неожиданно и стремительно в ее унылые будни врывается счастье: она знакомится с обаятельным Алексом и уже через месяц становится его женой.Но счастье обрывается столь же молниеносно, как и началось: после регистрации брака Алекс улетает в Питер, и в тот же день в новостях передают, что вертолет Алексея разбился...Вскоре Маша узнаёт, что ее любимый жив и здоров; но всё отнюдь не так радужно, как кажется на первый взгляд. Алекс рассказывает, что в катастрофе погиб его брат, и по документам Маша замужем за погибшим, а вовсе не за Алексом, которого, как выясняется, зовут Сашей. Первый шок вскоре сменяется ужасом: Алекс оказывается настоящим чудовищем, затеявшим коварный план, в котором Маше отведена главная роль...
Выпущено: Россия, Кинокомпания «Русское»
Продолжительность: 20 x ~ 00:45:00
Перевод: Не требуется
Файл:
Качество: HDTVRip
Видео: 720x400 (1.80:1), 25 fps, XviD build 73 ~1548 kbps avg, 0.213 bit/pixel
Аудио: 48 kHz, AC3 Dolby Digital, 2/0 (L,R) ch, ~192.00 kbps avg

MI

General
Complete name : Y:раздачиВсё только начинается.2015.HDTVRip.RG.Russkie.serialy.&.Files-x1.Всё только начинается.2015.HDTVRip.RG.Russkie.serialy.&.Files-x.avi
Format : AVI
Format/Info : Audio Video Interleave
File size : 549 MiB
Duration : 44mn 6s
Overall bit rate : 1 741 Kbps
Writing application : VirtualDubMod 1.5.10.3 | www.virtualdub-fr.org || (build 2550/release)
Writing library : VirtualDubMod build 2550/release
Video
ID : 0
Format : MPEG-4 Visual
Format profile : Advanced [email protected]
Format settings, BVOP : 1
Format settings, QPel : No
Format settings, GMC : No warppoints
Format settings, Matrix : Custom
Codec ID : XVID
Codec ID/Hint : XviD
Duration : 44mn 6s
Bit rate : 1 539 Kbps
Width : 720 pixels
Height : 400 pixels
Display aspect ratio : 16:9
Frame rate : 25.000 fps
Color space : YUV
Chroma subsampling : 4:2:0
Bit depth : 8 bits
Scan type : Progressive
Compression mode : Lossy
Bits/(Pixel*Frame) : 0.214
Stream size : 486 MiB (88%)
Writing library : XviD 73
Audio
ID : 1
Format : AC-3
Format/Info : Audio Coding 3
Mode extension : CM (complete main)
Format settings, Endianness : Big
Codec ID : 2000
Duration : 44mn 6s
Bit rate mode : Constant
Bit rate : 192 Kbps
Channel(s) : 2 channels
Channel positions : Front: L R
Sampling rate : 48.0 KHz
Compression mode : Lossy
Stream size : 60.6 MiB (11%)
Alignment : Split accross interleaves
Interleave, duration : 40 ms (1.00 video frame)
Interleave, preload duratio : 500 ms

Внимание! Раздача ведётся путём добавления новых серий!

Внимание! Раздача ведётся путём добавления новых серий
Внимание! Раздача ведётся путём добавления новых серий; при каждом добавлении создётся новый торрент.
Чтобы начать докачку новой серии, пользователям необходимо сделать следующее:
1) остановить скачивание
2) удалить старый торрент у себя из клиента (старые серии удалять не надо)
3) скачать новый торрент и запустить его у себя в клиенте вместо старого, при этом указать клиенту путь в старую папку куда и должно происходить скачивание новых серий.
Ваш клиент при этом должен произвести хеширование (проверку) старой папки (если не производит сам - помогите ему сделать это), и будет докачивать только те серии которых у вас ещё нет. Старые серии при этом не удаляются, а продолжают раздаваться!
Eсли вы уже удалили старые серии, то предотвратить повторную закачку старых серий можно, отжав галочку в соответствовавших местах при запуске нового торрента.
"Скриншоты"

Релиз от: Не жилим спасибо. Не забываем голосовать за трекер!!!


Показать сообщения:    

Текущее время: 22-Сен 02:23

Часовой пояс: UTC + 3


Вы не можете начинать темы
Вы не можете отвечать на сообщения
Вы не можете редактировать свои сообщения
Вы не можете удалять свои сообщения
Вы не можете голосовать в опросах
Вы не можете прикреплять файлы к сообщениям
Вы не можете скачивать файлы

!ВНИМАНИЕ!
Сайт не предоставляет электронные версии произведений, а занимается лишь коллекционированием и каталогизацией ссылок, присылаемых и публикуемых на форуме нашими читателями. Если вы являетесь правообладателем какого-либо представленного материала и не желаете, чтобы ссылка на него находилась в нашем каталоге, свяжитесь с нами, и мы незамедлительно удалим ее. Файлы для обмена на трекере предоставлены пользователями сайта, и администрация не несет ответственности за их содержание. Просьба не заливать файлы, защищенные авторскими правами, а также файлы нелегального содержания!