[Цитировать]

В пустыне и в джунглях / W pustyni i w puszczy (1973) DVDRip- Производство: Польша
Жанр: Приключения, экранизация
Режиссер: Владислав Шлесицкий
Актеры: Томаш Менджак, Моника Роска, Эмос Банго, Малия Мекки, Станислав Ясюкевич, Эдмунд Феттинг, Зигмунт Мациевский, Зигмунт Хобот, Ахмед Мареи, Ахмед Хегази, Ибрагим Шеми
Описание:
Экранизация повести Генрика Сенкевича. Действие фильма происходит в 80-х годах позапрошлого столетия. 8-летняя англичанка Нэль Роуписсон и 14-летний поляк Стась Тарковский должны отправиться из Порт-Сайда в Эль-Фоном к своим отцам в сопровождении гувернантки. Но волею обстоятельств юные герои оказываются втянутыми и водоворот событий, связанных с борьбой африканских народов против колонизаторов. Детей похищают, чтобы выкупить у английского губернатора заложников. По дороге Стасю удастся избавиться от похитителей, и дети остаются к глубине Африки с двумя неграми. Единственное спасение: для них - выход к Индийскому океану...

Продолжительность: 03:05:21
Качество видео: DVDRip
Перевод: Дублированный
Видео: XviD, 640x352, 990 Кбит/с
Аудио: MP3, 2 ch, 128 Кбит/с

MediaInfo:

Общее
Полное имя : C:\NNM\В пустыне и в джунглях\V pustyne 1973 DVDRip.avi
Формат : AVI
Формат/Информация : Audio Video Interleave
Размер файла : 1,46 Гбайт
Продолжительность : 3 ч. 5 м.
Общий поток : 1128 Кбит/сек
Программа кодирования : VirtualDubMod 1.5.10.3 | www.virtualdub-fr.org || (build 2550/release)
Библиотека кодирования : VirtualDubMod build 2550/release
Видео
Идентификатор : 0
Формат : MPEG-4 Visual
Профиль формата : Advanced [email protected]
Параметр BVOP формата : 2
Параметр QPel формата : Нет
Параметр GMC формата : Без точки перехода
Параметр матрицы формата : Выборочная
Идентификатор кодека : XVID
Идентификатор кодека/Подсказка : XviD
Продолжительность : 3 ч. 5 м.
Битрейт : 990 Кбит/сек
Ширина : 640 пикселей
Высота : 352 пикселя
Соотношение сторон : 16:9
Частота кадров : 25,000 кадров/сек
Цветовое пространство : YUV
Субдискретизация насыщенности : 4:2:0
Битовая глубина : 8 бит
Тип развёртки : Прогрессивная
Метод сжатия : С потерями
Бит/(Пиксели*Кадры) : 0.176
Размер потока : 1,28 Гбайт (88%)
Библиотека кодирования : XviD 63
Аудио
Идентификатор : 1
Формат : MPEG Audio
Версия формата : Version 1
Профиль формата : Layer 3
Идентификатор кодека : 55
Идентификатор кодека/Подсказка : MP3
Продолжительность : 3 ч. 5 м.
Вид битрейта : Постоянный
Битрейт : 128 Кбит/сек
Каналы : 2 канала
Частота : 48,0 КГц
Метод сжатия : С потерями
Размер потока : 170 Мбайт (11%)
Выравнивание : Соединение по промежуткам
Продолжительность промежутка : 40 мс. (1,00 видеокадр)
Время предзагрузки промежутка : 504 мс.
Библиотека кодирования : LAME3.98r
Настройки программы : -m s -V 4 -q 2 -lowpass 17 -b 128
Скриншоты: Не жилим спасибо. Не забываем голосовать за трекер!!!


Показать сообщения:    

Текущее время: 22-Сен 02:57

Часовой пояс: UTC + 3


Вы не можете начинать темы
Вы не можете отвечать на сообщения
Вы не можете редактировать свои сообщения
Вы не можете удалять свои сообщения
Вы не можете голосовать в опросах
Вы не можете прикреплять файлы к сообщениям
Вы не можете скачивать файлы

!ВНИМАНИЕ!
Сайт не предоставляет электронные версии произведений, а занимается лишь коллекционированием и каталогизацией ссылок, присылаемых и публикуемых на форуме нашими читателями. Если вы являетесь правообладателем какого-либо представленного материала и не желаете, чтобы ссылка на него находилась в нашем каталоге, свяжитесь с нами, и мы незамедлительно удалим ее. Файлы для обмена на трекере предоставлены пользователями сайта, и администрация не несет ответственности за их содержание. Просьба не заливать файлы, защищенные авторскими правами, а также файлы нелегального содержания!