[Цитировать]

Похищение Фредди Хайнекена / Kidnapping Mr. Heineken (2015) BDRip [H.264]«It was the perfect crime until they got way with it»- Производство: Нидерланды, Великобритания, Бельгия / European Film Company, Informant Europe SPRL
Жанр: триллер, криминал
Режиссер: Даниэль Альфредсон
Продюсер: Джуди Каиро, Ховард Мелцер, Майкл А. Симпсон
Актеры: Сэм Уортингтон, Энтони Хопкинс, Джим Стёрджесс, Райан Квантен, Роб Фуллер, Джемайма Уэст, Иоланта Кабау ван Касберген, Давид Денсик, Билли Слотер, Гас Родс
Описание:
Осенью 1983 года Амстердам был потрясен одним из самых известных и дерзких преступлений 20 века: владелец одной из крупнейших в мире пивоварен Heineken — Альфред Хайнекен — был похищен вместе с личным шофером прямо из собственного автомобиля. Несколько друзей, которым очень нужны были деньги, решили не мелочиться и заработать много и сразу, похитив одного из самых богатых людей в стране. Проведя тщательную подготовку, свои намерения они осуществили. Преступники требовали у родственников в качестве выкупа сумасшедшую по тем временам сумму — 35 млн. голландских гульденов (около 16 млн. евро). Взамен обещали сохранить жизни обоим.

Рейтинг MPAA: R - Детям до 17 лет обязательно присутствие родителей
Дата мировой премьеры: 26 февраля 2015
Дата российской премьеры: 28 мая 2015, «Cinema Prestige»
Продолжительность: 01:34:44
Качество: BDRip [H.264]
Перевод: Дублированный (Лицензия R5)
Вид субтитров: вшитые, отключаемые
Язык субтитров: Русский, английский
Видео: 3500 Кбит/с, 1024x432, AVC / H.264, 2,40:1, 0.330 Бит/(Пиксели*Кадры)
Аудио#1: Русский: 48 kHz, AC3, 3/2 (L,C,R,l,r) + LFE ch, ~384 kbps avg - Дублированный (DVD R5)
Аудио#2: Английский: 48 kHz, AC3, 3/2 (L,C,R,l,r) + LFE ch, ~448 kbps avg - Оригинал

MediaInfo

Общее
Уникальный идентификатор                 : 255109843999726762760615739395894826401 (0xBFEC5E677EA150B89EC96E3025A655A1)
Полное имя                               : D:\Kidnapping.Mr.Heineken.2015.x264.BDRip.AVC.Rus.Eng.mkv
Формат                                   : Matroska
Версия формата                           : Version 2
Размер файла                             : 2,86 Гбайт
Продолжительность                        : 1 ч. 34 м.
Общий поток                              : 4326 Кбит/сек
Дата кодирования                         : UTC 2015-06-30 15:03:37
Программа кодирования                    : mkvmerge v7.9.0 ('Birds') 64bit
Библиотека кодирования                   : libebml v1.3.1 + libmatroska v1.4.2
Видео
Идентификатор                            : 1
Формат                                   : AVC
Формат/Информация                        : Advanced Video Codec
Профиль формата                          : [email protected]
Параметр CABAC формата                   : Да
Параметр ReFrames формата                : 12 кадров
Идентификатор кодека                     : V_MPEG4/ISO/AVC
Продолжительность                        : 1 ч. 34 м.
Битрейт                                  : 3500 Кбит/сек
Ширина                                   : 1024 пикселя
Высота                                   : 432 пикселя
Соотношение сторон                       : 2,40:1
Режим частоты кадров                     : Постоянный
Частота кадров                           : 23,976 кадра/сек
Цветовое пространство                    : YUV
Субдискретизация насыщенности            : 4:2:0
Битовая глубина                          : 8 бит
Тип развёртки                            : Прогрессивная
Бит/(Пиксели*Кадры)                      : 0.330
Размер потока                            : 2,26 Гбайт (79%)
Библиотека кодирования                   : x264 core 146 r2538 121396c
Настройки программы                      : cabac=1 / ref=12 / deblock=1:-3:-3 / analyse=0x3:0x113 / me=umh / subme=11 / psy=1 / psy_rd=1.10:0.25 / mixed_ref=1 / me_range=32 / chroma_me=1 / trellis=2 / 8x8dct=1 / cqm=0 / deadzone=21,11 / fast_pskip=0 / chroma_qp_offset=-4 / threads=12 / lookahead_threads=4 / sliced_threads=0 / nr=0 / decimate=0 / interlaced=0 / bluray_compat=0 / constrained_intra=0 / bframes=10 / b_pyramid=2 / b_adapt=2 / b_bias=0 / direct=3 / weightb=1 / open_gop=1 / weightp=2 / keyint=240 / keyint_min=23 / scenecut=40 / intra_refresh=0 / rc=2pass / mbtree=0 / bitrate=3500 / ratetol=1.0 / qcomp=0.70 / qpmin=0 / qpmax=69 / qpstep=4 / cplxblur=20.0 / qblur=0.5 / ip_ratio=1.40 / pb_ratio=1.30 / aq=1:0.80
Язык                                     : English
Default                                  : Да
Forced                                   : Нет
Аудио #1
Идентификатор                            : 2
Формат                                   : AC-3
Формат/Информация                        : Audio Coding 3
Расширение режима                        : CM (complete main)
Параметр Endianness формата              : Big
Идентификатор кодека                     : A_AC3
Продолжительность                        : 1 ч. 34 м.
Вид битрейта                             : Постоянный
Битрейт                                  : 384 Кбит/сек
Каналы                                   : 6 каналов
Расположение каналов                     : Front: L C R, Side: L R, LFE
Частота                                  : 48,0 КГц
Битовая глубина                          : 16 бит
Метод сжатия                             : С потерями
Размер потока                            : 260 Мбайт (9%)
Заголовок                                : Дублированный (DVD R5)
Язык                                     : Russian
Default                                  : Да
Forced                                   : Нет
Аудио #2
Идентификатор                            : 3
Формат                                   : AC-3
Формат/Информация                        : Audio Coding 3
Расширение режима                        : CM (complete main)
Параметр Endianness формата              : Big
Идентификатор кодека                     : A_AC3
Продолжительность                        : 1 ч. 34 м.
Вид битрейта                             : Постоянный
Битрейт                                  : 448 Кбит/сек
Каналы                                   : 6 каналов
Расположение каналов                     : Front: L C R, Side: L R, LFE
Частота                                  : 48,0 КГц
Битовая глубина                          : 16 бит
Метод сжатия                             : С потерями
Размер потока                            : 304 Мбайт (10%)
Язык                                     : English
Default                                  : Нет
Forced                                   : Нет
Текст #1
Идентификатор                            : 4
Формат                                   : UTF-8
Идентификатор кодека                     : S_TEXT/UTF8
Идентификатор кодека/Информация          : UTF-8 Plain Text
Язык                                     : Russian
Default                                  : Нет
Forced                                   : Нет
Текст #2
Идентификатор                            : 5
Формат                                   : UTF-8
Идентификатор кодека                     : S_TEXT/UTF8
Идентификатор кодека/Информация          : UTF-8 Plain Text
Язык                                     : English
Default                                  : Нет
Forced                                   : Нет
Меню
00:00:00.000                             : en:Kidnapping Mr. Heineken
00:07:44.380                             : en:A Wager
00:16:22.147                             : en:Game Face
00:25:26.149                             : en:Do It Now
00:33:28.548                             : en:Experienced Criminals
00:39:29.450                             : en:Requests
00:49:56.785                             : en:The Two Ways
00:57:10.885                             : en:Leading the Mouse
01:04:19.021                             : en:What Now?
01:12:05.112                             : en:It's Over
01:21:20.792                             : en:Promise
01:29:26.944                             : en:End Credits
Скриншоты:
Не жилим спасибо. Не забываем голосовать за трекер!!!


Показать сообщения:    

Текущее время: 20-Сен 21:53

Часовой пояс: UTC + 3


Вы не можете начинать темы
Вы не можете отвечать на сообщения
Вы не можете редактировать свои сообщения
Вы не можете удалять свои сообщения
Вы не можете голосовать в опросах
Вы не можете прикреплять файлы к сообщениям
Вы не можете скачивать файлы

!ВНИМАНИЕ!
Сайт не предоставляет электронные версии произведений, а занимается лишь коллекционированием и каталогизацией ссылок, присылаемых и публикуемых на форуме нашими читателями. Если вы являетесь правообладателем какого-либо представленного материала и не желаете, чтобы ссылка на него находилась в нашем каталоге, свяжитесь с нами, и мы незамедлительно удалим ее. Файлы для обмена на трекере предоставлены пользователями сайта, и администрация не несет ответственности за их содержание. Просьба не заливать файлы, защищенные авторскими правами, а также файлы нелегального содержания!