[Цитировать]

Шрек / Shrek (2001) [H.264/720p] [hand made 60fps]- Производство: США / DreamWorks Animation
Жанр: Мультфильм, Фэнтези, Комедия, Приключения, Семейный
Режиссер: Эндрю Адамсон, Вики Дженсон
Персонажи: Майк Майерс, Эдди Мёрфи, Кэмерон Диаз, Джон Литгоу, Венсан Кассель, Питер Дэннис, Клив Пирс, Джим Каммингс, Бобби Блок, Крис Миллер
Описание:
Жил да был в сказочном государстве большой зеленый великан по имени Шрек. Жил он в гордом одиночестве в лесу, на болоте, которое считал своим. Но однажды злобный коротышка - лорд Фаркуад, правитель волшебного королевства, безжалостно согнал на Шреково болото всех сказочных обитателей.
И беспечной жизни зеленого тролля пришел конец. Но лорд Фаркуад пообещал вернуть Шреку болото, если великан добудет ему прекрасную принцессу Фиону, которая томится в неприступной башне, охраняемой огнедышащим драконом...

Релиз от: ENVY
Продолжительность: 01:30:08
Качество видео: BDRip 720p (исходник Blu-ray Disc Remux)
Перевод: Дублированный, Профессиональный (многоголосый закадровый), Авторский (одноголосый закадровый) П.Гланц, А.Гаврилов, С.Визгунов
Вид субтитров: Русские Полные, Английские Полные
Форсированные субтитры: Нет
Чаптеры (Главы): Есть
Видео: AVC/H.264, ~6002 kbps, 1280x720 (16:9), 59.940 fps, [email protected], 0.109 bit/px*fr
Аудио 1: AC-3, 640 Кбит/сек, 6 канала(ов), 48,0 КГц - Дублированный / Русский
Аудио 2: AC-3, 448 Кбит/сек, 6 канала(ов), 48,0 КГц - Многоголосый закадровый, Superbit / Русский
Аудио 3: AC-3, 640 Кбит/сек, 6 канала(ов), 48,0 КГц - Многоголосый закадровый, Карусель / Русский
Аудио 4: AC-3, 640 Кбит/сек, 6 канала(ов), 48,0 КГц - Многоголосый закадровый, Киномания / Русский
Аудио 5: AC-3, 640 Кбит/сек, 6 канала(ов), 48,0 КГц - Одноголосый закадровый, Дмитрий «Гоблин» Пучков / Русский
Аудио 6: AC-3, 640 Кбит/сек, 6 канала(ов), 48,0 КГц - Одноголосый закадровый, П.Гланц / Русский
Аудио 7: AC-3, 640 Кбит/сек, 6 канала(ов), 48,0 КГц - Одноголосый закадровый, А.Гаврилов / Русский
Аудио 8: AC-3, 640 Кбит/сек, 6 канала(ов), 48,0 КГц - Одноголосый закадровый, С.Визгунов / Русский
Аудио 9: AC-3, 640 Кбит/сек, 6 канала(ов), 48,0 КГц - Оригинал / Английский

MediaInfo:

Общее
Полное имя                               : G:\Shrek - 2001 BDRip [720p] [hand made 60fps].mkv
Формат                                   : Matroska
Версия формата                           : Version 2
Размер файла                             : 7,43 Гбайт
Продолжительность                        : 1 ч. 30 м.
Общий поток                              : 11,8 Мбит/сек
Дата кодирования                         : UTC 2015-05-14 15:16:11
Программа кодирования                    : mkvmerge v5.8.0 ('No Sleep / Pillow') built on Sep  2 2012 15:37:04
Библиотека кодирования                   : libebml v1.2.3 + libmatroska v1.3.0
Видео
Идентификатор                            : 1
Формат                                   : AVC
Формат/Информация                        : Advanced Video Codec
Профиль формата                          : [email protected]
Параметр CABAC формата                   : Да
Параметр ReFrames формата                : 9 кадров
Идентификатор кодека                     : V_MPEG4/ISO/AVC
Продолжительность                        : 1 ч. 30 м.
Битрейт                                  : 6002 Кбит/сек
Ширина                                   : 1280 пикселей
Высота                                   : 720 пикселей
Соотношение сторон                       : 16:9
Режим частоты кадров                     : Постоянный
Частота кадров                           : 59,880 кадров/сек
Частота кадров в оригинале               : 59,940 кадров/сек
Цветовое пространство                    : YUV
Субдискретизация насыщенности            : 4:2:0
Битовая глубина                          : 8 бит
Тип развёртки                            : Прогрессивная
Бит/(Пиксели*Кадры)                      : 0.109
Размер потока                            : 3,78 Гбайт (51%)
Заголовок                                : Шрек (2001) [720p] [60fps]
Библиотека кодирования                   : x264 core 130 r2273 b3065e6
Настройки программы                      : cabac=1 / ref=9 / deblock=1:0:0 / analyse=0x3:0x113 / me=umh / subme=10 / psy=1 / psy_rd=1.00:0.00 / mixed_ref=1 / me_range=24 / chroma_me=1 / trellis=2 / 8x8dct=1 / cqm=0 / deadzone=21,11 / fast_pskip=0 / chroma_qp_offset=-2 / threads=12 / lookahead_threads=1 / sliced_threads=0 / nr=0 / decimate=1 / interlaced=0 / bluray_compat=0 / constrained_intra=0 / bframes=6 / b_pyramid=2 / b_adapt=2 / b_bias=0 / direct=3 / weightb=1 / open_gop=0 / weightp=2 / keyint=250 / keyint_min=25 / scenecut=40 / intra_refresh=0 / rc=crf / mbtree=0 / crf=17.0 / qcomp=0.60 / qpmin=0 / qpmax=69 / qpstep=4 / ip_ratio=1.40 / pb_ratio=1.30 / aq=2:1.00
Язык                                     : English
Default                                  : Да
Forced                                   : Нет
Аудио #1
Идентификатор                            : 2
Формат                                   : AC-3
Формат/Информация                        : Audio Coding 3
Расширение режима                        : CM (complete main)
Параметр Endianness формата              : Big
Идентификатор кодека                     : A_AC3
Продолжительность                        : 1 ч. 30 м.
Вид битрейта                             : Постоянный
Битрейт                                  : 640 Кбит/сек
Каналы                                   : 6 каналов
Расположение каналов                     : Front: L C R, Side: L R, LFE
Частота                                  : 48,0 КГц
Метод сжатия                             : С потерями
Размер потока                            : 413 Мбайт (5%)
Заголовок                                : Dub
Язык                                     : Russian
Default                                  : Да
Forced                                   : Нет
Аудио #2
Идентификатор                            : 3
Формат                                   : AC-3
Формат/Информация                        : Audio Coding 3
Расширение режима                        : CM (complete main)
Параметр Endianness формата              : Big
Идентификатор кодека                     : A_AC3
Продолжительность                        : 1 ч. 30 м.
Вид битрейта                             : Постоянный
Битрейт                                  : 448 Кбит/сек
Каналы                                   : 6 каналов
Расположение каналов                     : Front: L C R, Side: L R, LFE
Частота                                  : 48,0 КГц
Метод сжатия                             : С потерями
Размер потока                            : 289 Мбайт (4%)
Заголовок                                : MVO Superbit
Язык                                     : Russian
Default                                  : Нет
Forced                                   : Нет
Аудио #3
Идентификатор                            : 4
Формат                                   : AC-3
Формат/Информация                        : Audio Coding 3
Расширение режима                        : CM (complete main)
Параметр Endianness формата              : Big
Идентификатор кодека                     : A_AC3
Продолжительность                        : 1 ч. 30 м.
Вид битрейта                             : Постоянный
Битрейт                                  : 640 Кбит/сек
Каналы                                   : 6 каналов
Расположение каналов                     : Front: L C R, Side: L R, LFE
Частота                                  : 48,0 КГц
Метод сжатия                             : С потерями
Размер потока                            : 413 Мбайт (5%)
Заголовок                                : MVO Karusel
Язык                                     : Russian
Default                                  : Нет
Forced                                   : Нет
Аудио #4
Идентификатор                            : 5
Формат                                   : AC-3
Формат/Информация                        : Audio Coding 3
Расширение режима                        : CM (complete main)
Параметр Endianness формата              : Big
Идентификатор кодека                     : A_AC3
Продолжительность                        : 1 ч. 30 м.
Вид битрейта                             : Постоянный
Битрейт                                  : 640 Кбит/сек
Каналы                                   : 6 каналов
Расположение каналов                     : Front: L C R, Side: L R, LFE
Частота                                  : 48,0 КГц
Метод сжатия                             : С потерями
Размер потока                            : 413 Мбайт (5%)
Заголовок                                : MVO Kinomanija
Язык                                     : Russian
Default                                  : Нет
Forced                                   : Нет
Аудио #5
Идентификатор                            : 6
Формат                                   : AC-3
Формат/Информация                        : Audio Coding 3
Расширение режима                        : CM (complete main)
Параметр Endianness формата              : Big
Идентификатор кодека                     : A_AC3
Продолжительность                        : 1 ч. 30 м.
Вид битрейта                             : Постоянный
Битрейт                                  : 640 Кбит/сек
Каналы                                   : 6 каналов
Расположение каналов                     : Front: L C R, Side: L R, LFE
Частота                                  : 48,0 КГц
Метод сжатия                             : С потерями
Размер потока                            : 413 Мбайт (5%)
Заголовок                                : Puchkov
Язык                                     : Russian
Default                                  : Нет
Forced                                   : Нет
Аудио #6
Идентификатор                            : 7
Формат                                   : AC-3
Формат/Информация                        : Audio Coding 3
Расширение режима                        : CM (complete main)
Параметр Endianness формата              : Big
Идентификатор кодека                     : A_AC3
Продолжительность                        : 1 ч. 30 м.
Вид битрейта                             : Постоянный
Битрейт                                  : 640 Кбит/сек
Каналы                                   : 6 каналов
Расположение каналов                     : Front: L C R, Side: L R, LFE
Частота                                  : 48,0 КГц
Метод сжатия                             : С потерями
Размер потока                            : 413 Мбайт (5%)
Заголовок                                : Glanc
Язык                                     : Russian
Default                                  : Нет
Forced                                   : Нет
Аудио #7
Идентификатор                            : 8
Формат                                   : AC-3
Формат/Информация                        : Audio Coding 3
Расширение режима                        : CM (complete main)
Параметр Endianness формата              : Big
Идентификатор кодека                     : A_AC3
Продолжительность                        : 1 ч. 30 м.
Вид битрейта                             : Постоянный
Битрейт                                  : 640 Кбит/сек
Каналы                                   : 6 каналов
Расположение каналов                     : Front: L C R, Side: L R, LFE
Частота                                  : 48,0 КГц
Метод сжатия                             : С потерями
Размер потока                            : 413 Мбайт (5%)
Заголовок                                : Gavrilov
Язык                                     : Russian
Default                                  : Нет
Forced                                   : Нет
Аудио #8
Идентификатор                            : 9
Формат                                   : AC-3
Формат/Информация                        : Audio Coding 3
Расширение режима                        : CM (complete main)
Параметр Endianness формата              : Big
Идентификатор кодека                     : A_AC3
Продолжительность                        : 1 ч. 30 м.
Вид битрейта                             : Постоянный
Битрейт                                  : 640 Кбит/сек
Каналы                                   : 6 каналов
Расположение каналов                     : Front: L C R, Side: L R, LFE
Частота                                  : 48,0 КГц
Метод сжатия                             : С потерями
Размер потока                            : 413 Мбайт (5%)
Заголовок                                : Vizgunov
Язык                                     : Russian
Default                                  : Нет
Forced                                   : Нет
Аудио #9
Идентификатор                            : 10
Формат                                   : AC-3
Формат/Информация                        : Audio Coding 3
Расширение режима                        : CM (complete main)
Параметр Endianness формата              : Big
Идентификатор кодека                     : A_AC3
Продолжительность                        : 1 ч. 30 м.
Вид битрейта                             : Постоянный
Битрейт                                  : 640 Кбит/сек
Каналы                                   : 6 каналов
Расположение каналов                     : Front: L C R, Side: L R, LFE
Частота                                  : 48,0 КГц
Метод сжатия                             : С потерями
Размер потока                            : 413 Мбайт (5%)
Заголовок                                : Eng
Язык                                     : English
Default                                  : Нет
Forced                                   : Нет
Текст #1
Идентификатор                            : 11
Формат                                   : UTF-8
Идентификатор кодека                     : S_TEXT/UTF8
Идентификатор кодека/Информация          : UTF-8 Plain Text
Заголовок                                : Rus full
Язык                                     : Russian
Default                                  : Нет
Forced                                   : Нет
Текст #2
Идентификатор                            : 12
Формат                                   : UTF-8
Идентификатор кодека                     : S_TEXT/UTF8
Идентификатор кодека/Информация          : UTF-8 Plain Text
Заголовок                                : Eng full
Язык                                     : English
Default                                  : Нет
Forced                                   : Нет
Меню
00:00:00.000                             : en:1. Once Upon a Time (Main Title)
00:04:58.798                             : en:2. A Flyinf, Talking Donkey
00:11:45.121                             : en:3. What Are You Doing In My Swamp?
00:16:00.793                             : en:4. Lord Farquaad
00:20:13.379                             : en:5. The Kingdom of Duloc
00:26:21.455                             : en:6. Ogres Are Like Onions
00:31:42.859                             : en:7. The Dragon's Keep
00:35:15.280                             : en:8. Rescuing the Princess
00:40:26.007                             : en:9. Remove Your Helmet
00:45:03.159                             : en:10. Campfire
00:49:18.247                             : en:11. Merry Men
00:55:29.701                             : en:12. Weedrat Dinner
01:00:56.278                             : en:13. You Ate the Princess!
01:05:35.348                             : en:14. The Proposal
01:09:16.986                             : en:15. Wedding Preparation
01:11:34.707                             : en:16. That's What Friends Are For
01:14:53.447                             : en:17. The Wedding
01:17:35.818                             : en:18. Love's True Form
01:20:55.142                             : en:19. I'm a Believer
01:23:04.354                             : en:20. End Credits
Скриншоты:
Не жилим спасибо. Не забываем голосовать за трекер!!!


Показать сообщения:    

Текущее время: 21-Ноя 19:56

Часовой пояс: UTC + 3


Вы не можете начинать темы
Вы не можете отвечать на сообщения
Вы не можете редактировать свои сообщения
Вы не можете удалять свои сообщения
Вы не можете голосовать в опросах
Вы не можете прикреплять файлы к сообщениям
Вы не можете скачивать файлы

!ВНИМАНИЕ!
Сайт не предоставляет электронные версии произведений, а занимается лишь коллекционированием и каталогизацией ссылок, присылаемых и публикуемых на форуме нашими читателями. Если вы являетесь правообладателем какого-либо представленного материала и не желаете, чтобы ссылка на него находилась в нашем каталоге, свяжитесь с нами, и мы незамедлительно удалим ее. Файлы для обмена на трекере предоставлены пользователями сайта, и администрация не несет ответственности за их содержание. Просьба не заливать файлы, защищенные авторскими правами, а также файлы нелегального содержания!