[Цитировать]

Curtis Fuller - Soul Trombone (1961) /2015, Universal Music/- Год: 2015
Год записи: 1961
Жанр: Jazz, Hard Bop
Продолжительность: 00:38:39
Кодек: FLAC (tracks+.cue)
Битрейт: Lossless
Источник (релизер): ruskaval
Издатель (лейбл): Impulse! / Verve / Universal Music
Номер по каталогу: UCCI-9254
Страна-производитель диска: Japan
Наличие сканов в содержимом раздачи: да
Треклист:
01. The Clan [06:20]
02. In The Wee Small Hours Of The Morning [04:58]
03. Newdles [07:41]
04. The Breeze And I [04:04]
05. Dear Old Stockholm [09:08]
06. Ladies' Night [06:31]

Отчёт ЕАС:

Exact Audio Copy V1.0 beta 6 from 9. April 2015
EAC extraction logfile from 19. June 2015, 18:09
Curtis Fuller / Soul Trombone
Used drive  : ATAPI   iHAS124   B   Adapter: 2  ID: 0
Read mode               : Secure
Utilize accurate stream : Yes
Defeat audio cache      : Yes
Make use of C2 pointers : No
Read offset correction                      : 6
Overread into Lead-In and Lead-Out          : No
Fill up missing offset samples with silence : Yes
Delete leading and trailing silent blocks   : No
Null samples used in CRC calculations       : Yes
Used interface                              : Installed external ASPI interface
Gap handling                                : Appended to previous track
Used output format              : User Defined Encoder
Selected bitrate                : 1024 kBit/s
Quality                         : High
Add ID3 tag                     : No
Command line compressor         : C:\Program Files (x86)\FLAC Frontend\tools\flac.exe
Additional command line options : -8 -V -T "ARTIST=%artist%" -T "TITLE=%title%" -T "ALBUM=%albumtitle%" -T "DATE=%year%" -T "TRACKNUMBER=%tracknr%" -T "TOTALTRACKS=%numtracks%" -T "GENRE=%genre%" -T "ALBUMARTIST=%albumartist%" -T "ALBUM ARTIST=%albumartist%" -T "COMMENT=EAC Secure Mode, Test & Copy, AccurateRip, FLAC -8" %source%
TOC of the extracted CD
     Track |   Start  |  Length  | Start sector | End sector
    ---------------------------------------------------------
        1  |  0:00.00 |  6:19.65 |         0    |    28489
        2  |  6:19.65 |  4:57.32 |     28490    |    50796
        3  | 11:17.22 |  7:40.25 |     50797    |    85321
        4  | 18:57.47 |  4:03.48 |     85322    |   103594
        5  | 23:01.20 |  9:07.32 |    103595    |   144651
        6  | 32:08.52 |  6:30.13 |    144652    |   173914
Track  1
     Filename D:\_EAC\Curtis Fuller - Soul Trombone (1961) [FLAC] {2015 Japan Impulse! Classics 50 Series}\01 - The Clan.wav
     Pre-gap length  0:00:02.00
     Peak level 85.9 %
     Extraction speed 2.0 X
     Track quality 100.0 %
     Test CRC C4A7171D
     Copy CRC C4A7171D
     Accurately ripped (confidence 2)  [5291B178]  (AR v2)
     Copy OK
Track  2
     Filename D:\_EAC\Curtis Fuller - Soul Trombone (1961) [FLAC] {2015 Japan Impulse! Classics 50 Series}\02 - In The Wee Small Hours Of The Morning.wav
     Pre-gap length  0:00:03.09
     Peak level 77.8 %
     Extraction speed 2.2 X
     Track quality 100.0 %
     Test CRC 0542A522
     Copy CRC 0542A522
     Accurately ripped (confidence 2)  [5BC19290]  (AR v2)
     Copy OK
Track  3
     Filename D:\_EAC\Curtis Fuller - Soul Trombone (1961) [FLAC] {2015 Japan Impulse! Classics 50 Series}\03 - Newdles.wav
     Pre-gap length  0:00:03.24
     Peak level 86.2 %
     Extraction speed 2.6 X
     Track quality 100.0 %
     Test CRC 2EF078AA
     Copy CRC 2EF078AA
     Accurately ripped (confidence 2)  [71AAC4BD]  (AR v2)
     Copy OK
Track  4
     Filename D:\_EAC\Curtis Fuller - Soul Trombone (1961) [FLAC] {2015 Japan Impulse! Classics 50 Series}\04 - The Breeze And I.wav
     Pre-gap length  0:00:03.21
     Peak level 78.9 %
     Extraction speed 2.6 X
     Track quality 100.0 %
     Test CRC 85358AAD
     Copy CRC 85358AAD
     Accurately ripped (confidence 2)  [F7F15820]  (AR v2)
     Copy OK
Track  5
     Filename D:\_EAC\Curtis Fuller - Soul Trombone (1961) [FLAC] {2015 Japan Impulse! Classics 50 Series}\05 - Dear Old Stockholm.wav
     Pre-gap length  0:00:03.24
     Peak level 84.5 %
     Extraction speed 2.6 X
     Track quality 99.9 %
     Test CRC 100B4DAF
     Copy CRC 100B4DAF
     Accurately ripped (confidence 2)  [7BE12F72]  (AR v2)
     Copy OK
Track  6
     Filename D:\_EAC\Curtis Fuller - Soul Trombone (1961) [FLAC] {2015 Japan Impulse! Classics 50 Series}\06 - Ladies' Night.wav
     Pre-gap length  0:00:03.16
     Peak level 85.6 %
     Extraction speed 3.3 X
     Track quality 100.0 %
     Test CRC AF315D14
     Copy CRC AF315D14
     Accurately ripped (confidence 1)  [FBEEE74E]  (AR v2)
     Copy OK
All tracks accurately ripped
No errors occurred
End of status report
==== Log checksum 22280F3A9BE1B8C3F186AD82656A940E8D7A18438B74AFE4F18B67C82088D0B0 ====

Отчёт auCDtect Task manager:

-----------------------
DON'T MODIFY THIS FILE
-----------------------
PERFORMER: auCDtect Task Manager, ver. 1.6.0 RC1 build 1.6.0.1
Copyright (c) 2008-2010 y-soft. All rights reserved
http://y-soft.org
ANALYZER: auCDtect: CD records authenticity detector, version 0.8.2
Copyright (c) 2004 Oleg Berngardt. All rights reserved.
Copyright (c) 2004 Alexander Djourik. All rights reserved.
FILE: 06 - Ladies' Night.flac
  Size: 43570086 Hash: CA3008AE5734364A5C7CE118ADF5D397 Accuracy: -m0
  Conclusion: CDDA 100%
  Signature: F8113D85E45FEC990C1C12A74C0E5760F3D19815
FILE: 05 - Dear Old Stockholm.flac
  Size: 56821079 Hash: 306B2EC07F66A2C0B441798106B50005 Accuracy: -m0
  Conclusion: CDDA 100%
  Signature: FC827D4AE2725F96ABA469D7FEDF382A6EB47A86
FILE: 04 - The Breeze And I.flac
  Size: 26882027 Hash: B310E09F3886E35A0F4286E727CAC5FE Accuracy: -m0
  Conclusion: CDDA 100%
  Signature: FC3C39FD0FCBE4DF5D6A3C7609C93E13C9FF1A68
FILE: 03 - Newdles.flac
  Size: 53801479 Hash: D1BE7C811014EBD547C6D15A237D937E Accuracy: -m0
  Conclusion: CDDA 100%
  Signature: 5D0EEFAEE0F27D38DE665B39FE576E72270C5043
FILE: 02 - In The Wee Small Hours Of The Morning.flac
  Size: 28079535 Hash: E03DFE1B7C96E3F4993A6983EB21ED4D Accuracy: -m0
  Conclusion: CDDA 99%
  Signature: 2B4FA26777365F3425844DCD152A6FF9FD6F22F8
FILE: 01 - The Clan.flac
  Size: 40015643 Hash: CE79CAFB22A30CEFBE256510AFD1AF0A Accuracy: -m0
  Conclusion: CDDA 100%
  Signature: FB776ECDB294C8BBCB566C38070FDEB272DEC46E

Содержание индексной карты (.CUE)

REM GENRE Jazz
REM DATE 1961
REM DISCID 4E090E06
REM COMMENT "ExactAudioCopy v1.0b6"
PERFORMER "Curtis Fuller"
TITLE "Soul Trombone"
FILE "01 - The Clan.wav" WAVE
  TRACK 01 AUDIO
    TITLE "The Clan"
    PERFORMER "Curtis Fuller"
    INDEX 01 00:00:00
  TRACK 02 AUDIO
    TITLE "In The Wee Small Hours Of The Morning"
    PERFORMER "Curtis Fuller"
    INDEX 00 06:16:56
FILE "02 - In The Wee Small Hours Of The Morning.wav" WAVE
    INDEX 01 00:00:00
  TRACK 03 AUDIO
    TITLE "Newdles"
    PERFORMER "Curtis Fuller"
    INDEX 00 04:54:08
FILE "03 - Newdles.wav" WAVE
    INDEX 01 00:00:00
  TRACK 04 AUDIO
    TITLE "The Breeze And I"
    PERFORMER "Curtis Fuller"
    INDEX 00 07:37:04
FILE "04 - The Breeze And I.wav" WAVE
    INDEX 01 00:00:00
  TRACK 05 AUDIO
    TITLE "Dear Old Stockholm"
    PERFORMER "Curtis Fuller"
    INDEX 00 04:00:24
FILE "05 - Dear Old Stockholm.wav" WAVE
    INDEX 01 00:00:00
  TRACK 06 AUDIO
    TITLE "Ladies' Night"
    PERFORMER "Curtis Fuller"
    INDEX 00 09:04:16
FILE "06 - Ladies' Night.wav" WAVE
    INDEX 01 00:00:00

Состав

Curtis Fuller - trombone
Freddie Hubbard - trumpet
Jimmy Heath - tenor sax
Cedar Walton - piano
Jymie Merritt - bass
Jimmy Cobb - drums (1-4, 6)
G. T. Hogan - drums (5)
Не жилим спасибо. Не забываем голосовать за трекер!!!
[new.torrnado.win].t103702.torrent 
Торрент: Зарегистрирован   [ 2015-07-03 14:08 ] · DE8B66A921A67F4C0F5C09002E911255894C5B08

Скачать .torrent

Скачать

21 KB

Тут должна быть ссылка на скачивание, если ее нет - значит ваш блокировщик рекламы ее заблокировал, что бы скачивать файлы с нашего сайта отключите блокировщик рекламы! И перезагрузите страницу.
Статус: проверено
Скачан: 35 раз
Размер: 251 MB
Оценка:  - (Голосов: 0) СуперХорошоСреднеТак себеОтстой
Поблагодарили: 1  Спасибо   (список)
Поделится:


Показать сообщения:    

Текущее время: 17-Дек 08:53

Часовой пояс: UTC + 3


Вы не можете начинать темы
Вы не можете отвечать на сообщения
Вы не можете редактировать свои сообщения
Вы не можете удалять свои сообщения
Вы не можете голосовать в опросах
Вы не можете прикреплять файлы к сообщениям
Вы можете скачивать файлы

!ВНИМАНИЕ!
Сайт не предоставляет электронные версии произведений, а занимается лишь коллекционированием и каталогизацией ссылок, присылаемых и публикуемых на форуме нашими читателями. Если вы являетесь правообладателем какого-либо представленного материала и не желаете, чтобы ссылка на него находилась в нашем каталоге, свяжитесь с нами, и мы незамедлительно удалим ее. Файлы для обмена на трекере предоставлены пользователями сайта, и администрация не несет ответственности за их содержание. Просьба не заливать файлы, защищенные авторскими правами, а также файлы нелегального содержания!