[Цитировать]

Драйвер на ночь / Stretch (2014) BDRip [576p] iPad
«чепуха случается»
- Год выпуска: 2014
Производство: США
Жанр: Триллер, комедия
Продолжительность: 01:34:33
Перевод: Дублированный (iTunes)
Cубтитры: Русские форсированные, Русские, Английские
Режиссер: Джо Карнахан
Актеры: Патрик Уилсон, Эд Хелмс, Джеймс Бэдж Дэйл, Бруклин Декер, Крис Пайн, Джессика Альба, Рэй Лиотта, Дэвид Хассельхофф, Рэнди Кутюр, Минди Робинсон
Мировая премьера: 14 октября 2014

Описание: Невезучему шоферу лимузина до выплаты внушительного долга остается отработать всего одну смену. Его последним клиентом становится загадочный молодой миллиардер, пообещавший небывалые чаевые за несколько дополнительных услуг. В погоне за так нужными ему сейчас деньгами водитель ввязывается в безумные переделки на улицах Лос-Анджелеса, и чем больше ночь опускается на мегаполис, тем более призрачной видится ему надежда остаться в живых…-Качество: BDRip
Контейнер: M4V
Видео: H.264, 1024x432, 2.40:1, 2 200 Kbps, 23.976 fps
Аудио 1: Русский/Дублированный (iTunes), AAC / 2.0 / 157 Kbps / 48.0 KHz
Аудио 2: Английский/Оригинальная дорожка , AAC / 2.0 / 155 Kbps / 48.0 KHz
Язык субтитров: Русский, Английский
Вид субтитров: Вшитые (полные, форсированные, отключаемые)-

iTunes Meta Tags

Sort Name: Stretch
XID: Apple:vendor_id:2014-717025
contentID: 924267731
Copyright: © 2014 Universal Studios. All Rights Reserved.
Screenwriters: Джо Карнахан, Джерри Корли, Роб Роуз
Producers: Джейсон Блум, Бен Брэй, Джо Карнахан
Director: Джо Карнахан
Cast: Патрик Уилсон, Эд Хелмс, Джеймс Бэдж Дэйл, Бруклин Декер, Крис Пайн, Джессика Альба, Рэй Лиотта, Дэвид Хассельхофф, Рэнди Кутюр, Минди Робинсон, Дмитрий Сова, Владимир Терещук, Михаил Тишин, Татьяна Антонова, Александр Погребняк
Studio: Universal Pictures
Rating: 11
Long Description: Невезучему шоферу лимузина до выплаты внушительного долга остается отработать всего одну смену. Его последним клиентом становится загадочный молодой миллиардер, пообещавший небывалые чаевые за несколько дополнительных услуг. В погоне за так нужными ему сейчас деньгами водитель ввязывается в безумные переделки на улицах Лос-Анджелеса, и чем больше ночь опускается на мегаполис, тем более призрачной видится ему надежда остаться в живых...
Description: Невезучему шоферу лимузина до выплаты внушительного долга остается отработать всего одну смену. Его последним клиентом становится загадочный молодой миллиардер, пообещавший небывалые чаевые за несколько дополнительных услуг.
Release Date: 2014-10-14T08:00:00Z
Genre: Comedy
Artist: Joe Carnahan
Name: Stretch

MediaInfo

General
Complete name                            : /Users/imac/HandBrake/Stretch.(SD).(pk).m4v
Format                                   : MPEG-4
Codec ID                                 : M4V
File size                                : 1.66 GiB
Duration                                 : 1h 34mn
Overall bit rate mode                    : Variable
Overall bit rate                         : 2 519 Kbps
Movie name                               : Stretch
Performer                                : Joe Carnahan
Genre                                    : Comedy
Recorded date                            : UTC 2014-10-14 08:00:00
Encoded date                             : UTC 2015-07-02 22:51:39
Tagged date                              : UTC 2015-07-02 22:52:41
Copyright                                : © 2014 Universal Studios. All Rights Reserved.
Cover                                    : Yes
sonm                                     : Stretch
desc                                     : Невезучему шоферу лимузина до выплаты внушительного долга остается отработать всего одну смену. Его последним клиентом становится загадочный молодой миллиардер, пообещавший небывалые чаевые за несколько дополнительных услуг.
ldes                                     : Невезучему шоферу лимузина до выплаты внушительного долга остается отработать всего одну смену. Его последним клиентом становится загадочный молодой миллиардер, пообещавший небывалые чаевые за несколько дополнительных услуг. В погоне за так нужными ему сейчас деньгами водитель ввязывается в безумные переделки на улицах Лос-Анджелеса, и чем больше ночь опускается на мегаполис, тем более призрачной видится ему надежда остаться в живых...
stik                                     : 9
rtng                                     : 0
cnID                                     : 924267731
xid                                      : Apple:vendor_id:2014-717025
iTunEXTC                                 : mpaa|R|400|
iTunMOVI                                 :  /  /  /  /   cast /   /     /       name /       Патрик Уилсон /     /     /       name /       Эд Хелмс /     /     /       name /       Джеймс Бэдж Дэйл /     /     /       name /       Бруклин Декер /     /     /       name /       Крис Пайн /     /     /       name /       Джессика Альба /     /     /       name /       Рэй Лиотта /     /     /       name /       Дэвид Хассельхофф /     /     /       name /       Рэнди Кутюр /     /     /       name /       Минди Робинсон /     /     /       name /       Дмитрий Сова /     /     /       name /       Владимир Терещук /     /     /       name /       Михаил Тишин /     /     /       name /       Татьяна Антонова /     /     /       name /       Александр Погребняк /     /   /   directors /   /     /       name /       Джо Карнахан /     /   /   producers /   /     /       name /       Джейсон Блум /     /     /       name /       Бен Брэй /     /     /       name /       Джо Карнахан /     /   /   screenwriters /   /     /       name /       Джо Карнахан /     /     /       name /       Джерри Корли /     /     /       name /       Роб Роуз /     /   /   studio /   Universal Pictures /  /
Video #1
ID                                       : 1
Format                                   : AVC
Format/Info                              : Advanced Video Codec
Format profile                           : [email protected]
Format settings, CABAC                   : Yes
Format settings, ReFrames                : 9 frames
Codec ID                                 : avc1
Codec ID/Info                            : Advanced Video Coding
Duration                                 : 1h 34mn
Bit rate mode                            : Variable
Bit rate                                 : 2 200 Kbps
Width                                    : 1 024 pixels
Height                                   : 432 pixels
Display aspect ratio                     : 2.40:1
Frame rate mode                          : Variable
Frame rate                               : 23.976 fps
Minimum frame rate                       : 23.974 fps
Maximum frame rate                       : 23.981 fps
Color space                              : YUV
Chroma subsampling                       : 4:2:0
Bit depth                                : 8 bits
Scan type                                : Progressive
Bits/(Pixel*Frame)                       : 0.207
Stream size                              : 1.45 GiB (87%)
Writing library                          : x264 core 142 r2479 dd79a61
Encoding settings                        : cabac=1 / ref=9 / deblock=1:0:0 / analyse=0x3:0x113 / me=umh / subme=9 / psy=1 / psy_rd=1.00:0.00 / mixed_ref=1 / me_range=32 / chroma_me=1 / trellis=1 / 8x8dct=1 / cqm=0 / deadzone=21,11 / fast_pskip=1 / chroma_qp_offset=-2 / threads=36 / lookahead_threads=3 / sliced_threads=0 / nr=0 / decimate=1 / interlaced=0 / bluray_compat=0 / constrained_intra=0 / bframes=6 / b_pyramid=2 / b_adapt=2 / b_bias=0 / direct=1 / weightb=1 / open_gop=0 / weightp=2 / keyint=240 / keyint_min=24 / scenecut=40 / intra_refresh=0 / rc_lookahead=40 / rc=2pass / mbtree=1 / bitrate=2200 / ratetol=1.0 / qcomp=0.60 / qpmin=0 / qpmax=69 / qpstep=4 / cplxblur=20.0 / qblur=0.5 / ip_ratio=1.40 / aq=1:1.00
Language                                 : English
Encoded date                             : UTC 2015-07-02 22:51:39
Tagged date                              : UTC 2015-07-02 22:51:43
Color primaries                          : BT.709-5, BT.1361, IEC 61966-2-4, SMPTE RP177
Transfer characteristics                 : BT.709-5, BT.1361
Matrix coefficients                      : BT.709-5, BT.1361, IEC 61966-2-4 709, SMPTE RP177
Video #2
ID                                       : 8
Format                                   : JPEG
Codec ID                                 : jpeg
Duration                                 : 1h 34mn
Bit rate mode                            : Variable
Bit rate                                 : 767 bps
Width                                    : 640 pixels
Height                                   : 270 pixels
Display aspect ratio                     : 2.40:1
Frame rate mode                          : Constant
Frame rate                               : 0.003 fps
Color space                              : YUV
Chroma subsampling                       : 4:2:0
Bit depth                                : 8 bits
Compression mode                         : Lossy
Bits/(Pixel*Frame)                       : 1.480
Stream size                              : 593 KiB (0%)
Language                                 : English
Encoded date                             : UTC 2015-07-02 22:51:51
Tagged date                              : UTC 2015-07-02 22:51:51
Audio #1
ID                                       : 2
Format                                   : AAC
Format/Info                              : Advanced Audio Codec
Format profile                           : LC
Codec ID                                 : 40
Duration                                 : 1h 34mn
Bit rate mode                            : Variable
Bit rate                                 : 157 Kbps
Maximum bit rate                         : 265 Kbps
Channel(s)                               : 2 channels
Channel positions                        : Front: L R
Sampling rate                            : 48.0 KHz
Compression mode                         : Lossy
Stream size                              : 106 MiB (6%)
Language                                 : Russian
Encoded date                             : UTC 2015-07-02 22:51:39
Tagged date                              : UTC 2015-07-02 22:51:47
Audio #2
ID                                       : 3
Format                                   : AAC
Format/Info                              : Advanced Audio Codec
Format profile                           : LC
Codec ID                                 : 40
Duration                                 : 1h 34mn
Bit rate mode                            : Variable
Bit rate                                 : 155 Kbps
Maximum bit rate                         : 266 Kbps
Channel(s)                               : 2 channels
Channel positions                        : Front: L R
Sampling rate                            : 48.0 KHz
Compression mode                         : Lossy
Stream size                              : 105 MiB (6%)
Language                                 : English
Encoded date                             : UTC 2015-07-02 22:51:39
Tagged date                              : UTC 2015-07-02 22:51:47
Text #1
ID                                       : 4
Format                                   : Timed text
Muxing mode                              : sbtl
Codec ID                                 : tx3g
Duration                                 : 1h 26mn
Bit rate mode                            : Variable
Bit rate                                 : 1 bps
Stream size                              : 767 Bytes (0%)
Language                                 : Russian
Encoded date                             : UTC 2015-07-02 22:51:39
Tagged date                              : UTC 2015-07-02 22:51:39
Text #2
ID                                       : 5
Format                                   : Timed text
Muxing mode                              : sbtl
Codec ID                                 : tx3g
Duration                                 : 1h 34mn
Bit rate mode                            : Variable
Bit rate                                 : 128 bps
Stream size                              : 88.4 KiB (0%)
Language                                 : Russian
Encoded date                             : UTC 2015-07-02 22:51:39
Tagged date                              : UTC 2015-07-02 22:51:39
Text #3
ID                                       : 6
Format                                   : Timed text
Muxing mode                              : sbtl
Codec ID                                 : tx3g
Duration                                 : 1h 34mn
Bit rate mode                            : Variable
Bit rate                                 : 83 bps
Stream size                              : 57.6 KiB (0%)
Language                                 : English
Encoded date                             : UTC 2015-07-02 22:51:39
Tagged date                              : UTC 2015-07-02 22:51:39
Text #4
ID                                       : 7
Format                                   : Apple text
Codec ID                                 : text
Duration                                 : 1h 34mn
Bit rate mode                            : Variable
Bit rate                                 : 1 bps
Stream size                              : 447 Bytes (0%)
Language                                 : English
Encoded date                             : UTC 2015-07-02 22:51:47
Tagged date                              : UTC 2015-07-02 22:51:47
Menu
00:00:00.000                             : Chapter 1
00:04:59.674                             : Chapter 2
00:09:59.808                             : Chapter 3
00:14:59.899                             : Chapter 4
00:19:59.990                             : Chapter 5
00:24:59.540                             : Chapter 6
00:29:59.589                             : Chapter 7
00:34:59.055                             : Chapter 8
00:39:59.564                             : Chapter 9
00:44:59.989                             : Chapter 10
00:49:59.788                             : Chapter 11
00:54:59.421                             : Chapter 12
01:00:00.013                             : Chapter 13
01:04:59.687                             : Chapter 14
01:09:59.946                             : Chapter 15
01:14:59.203                             : Chapter 16
01:19:59.670                             : Chapter 17
01:24:59.511                             : Chapter 18
01:29:59.686                             : Chapter 19

x264 лог

x264 [info]: frame I:1524  Avg QP:12.84  size: 76961
x264 [info]: frame P:32781 Avg QP:15.85  size: 23385
x264 [info]: frame B:101728 Avg QP:17.96  size:  6639
x264 [info]: consecutive B-frames:  3.8%  3.9% 10.3% 21.4% 22.0% 31.1%  7.5%
x264 [info]: mb I  I16..4:  9.3% 68.9% 21.7%
x264 [info]: mb P  I16..4:  1.4%  9.1%  2.5%  P16..4: 35.0% 27.9% 16.2%  0.0%  0.0%    skip: 7.9%
x264 [info]: mb B  I16..4:  0.1%  0.8%  0.2%  B16..8: 39.3% 12.0%  3.1%  direct: 4.6%  skip:39.8%  L0:44.1% L1:44.7% BI:11.2%
x264 [info]: 8x8 transform intra:69.9% inter:68.6%
x264 [info]: coded y,uvDC,uvAC intra: 88.2% 81.8% 65.8% inter: 27.2% 20.9% 5.1%
x264 [info]: i16 v,h,dc,p: 26% 15%  8% 51%
x264 [info]: i8 v,h,dc,ddl,ddr,vr,hd,vl,hu: 10%  9%  5% 10% 14% 14% 14% 12% 13%
x264 [info]: i4 v,h,dc,ddl,ddr,vr,hd,vl,hu:  9%  9%  3% 10% 15% 15% 14% 12% 13%
x264 [info]: i8c dc,h,v,p: 42% 23% 18% 17%
x264 [info]: Weighted P-Frames: Y:5.0% UV:3.0%
x264 [info]: ref P L0: 48.8% 10.1% 16.7%  7.0%  5.4%  4.0%  3.5%  2.1%  2.0%  0.4%  0.0%
x264 [info]: ref B L0: 70.7% 13.0%  6.7%  3.5%  2.5%  2.1%  1.2%  0.4%
x264 [info]: ref B L1: 90.9%  9.1%
x264 [info]: kb/s:2198.56
Скриншоты: -

Релиз подготовлен для просмотра на Apple TV, iPad, iPhone, iPod Touch.
Для просмотра данного релиза на компьютере с ОС Windows рекомендуется использовать VLC media player
Не жилим спасибо. Не забываем голосовать за трекер!!!


Показать сообщения:    

Текущее время: 21-Ноя 18:50

Часовой пояс: UTC + 3


Вы не можете начинать темы
Вы не можете отвечать на сообщения
Вы не можете редактировать свои сообщения
Вы не можете удалять свои сообщения
Вы не можете голосовать в опросах
Вы не можете прикреплять файлы к сообщениям
Вы не можете скачивать файлы

!ВНИМАНИЕ!
Сайт не предоставляет электронные версии произведений, а занимается лишь коллекционированием и каталогизацией ссылок, присылаемых и публикуемых на форуме нашими читателями. Если вы являетесь правообладателем какого-либо представленного материала и не желаете, чтобы ссылка на него находилась в нашем каталоге, свяжитесь с нами, и мы незамедлительно удалим ее. Файлы для обмена на трекере предоставлены пользователями сайта, и администрация не несет ответственности за их содержание. Просьба не заливать файлы, защищенные авторскими правами, а также файлы нелегального содержания!