[Цитировать]

Bad Boys Blue - Bad Boys Best 2001 (2001) Compilation- Год: 2001
Жанр: Europop, Synth-pop, Disco
Лейбл: BMG/Coconut
Каталог #: 74321 86825 2
Продолжительность: 01:17:48
Кодек: FLAC
Битрейт: Lossless
Тип рипа: image + .cue
Источник: aduard72
Discogs
Треклист:
01. You're a Woman '98
02. Back to the Future
03. L.O.V.E. in My Car '98
04. Jungle in My Heart '99
05. From Heaven to Heartache
06. Lady in Black '98
07. Don't Walk Away, Suzanne (Et Cetera remix)
08. I'll Be Good
09. A World Without You (Michelle) '98
10. Queen of Hearts '99

Продолжение треклиста:

11. Come Back and Stay '98
12. Lovers in the Sand '98
13. Do What You Do
14. Save Your Love '99
15. Have You Ever Had a Love Like This
16. Hungry for Love (rap version)
17. Kiss You All Over, Baby '99
18. S.O.S. For Love
19. Love Really Hurts Without You
20. House of Silence '99
21. Don't Want Your Love
22. Sweet Little Things

Отчёт ЕАС:

Exact Audio Copy V1.1 from 23. June 2015
Отчёт EAC об извлечении, выполненном 5. июля 2015, 9:07
Bad Boys Blue / Bad Boys Best 2001
Дисковод: TSSTcorpCDDVDW SH-224DB   Adapter: 0  ID: 0
Режим чтения                 : Достоверность
Использование точного потока : Да
Отключение кэша аудио        : Да
Использование указателей C2  : Нет
Коррекция смещения при чтении                     : 6
Способность читать области Lead-in и Lead-out     : Нет
Заполнение пропущенных сэмплов тишиной            : Да
Удаление блоков с тишиной в начале и конце        : Нет
При вычислениях CRC использовались нулевые сэмплы : Да
Интерфейс                                         : Установленный внешний ASPI-интерфейс
Выходной формат          : Пользовательский кодировщик
Выбранный битрейт        : 768 kBit/s
Качество                 : Высокий
Добавление ID3-тега      : Нет
Утилита сжатия           : C:\Program Files (x86)\Exact Audio Copy\FLAC\FLAC.EXE
Дополнительные параметры : -8 -V -T "TITLE=%title%" -T "ARTIST=%artist%" -T "ALBUMARTIST=%albumartist%" -T "ALBUM=%albumtitle%" -T "DATE=%year%" -T "TRACKNUMBER=%tracknr%" -T "TRACKTOTAL=%numtracks%" -T "GENRE=%genre%" -T "COMMENT=%comment%" -T "PERFORMER=%albuminterpret%" -T "COMPOSER=%composer%" %source% -o %dest%
TOC извлечённого CD
     Трек |   Старт  | Длительность | Начальный сектор | Конечный сектор
    ---------------------------------------------------------------------
       1  |  0:00.32 |    3:52.40   |          32      |      17471
       2  |  3:52.72 |    3:42.73   |       17472      |      34194
       3  |  7:35.70 |    3:30.52   |       34195      |      49996
       4  | 11:06.47 |    3:39.28   |       49997      |      66449
       5  | 14:46.00 |    3:32.67   |       66450      |      82416
       6  | 18:18.67 |    3:25.43   |       82417      |      97834
       7  | 21:44.35 |    3:26.55   |       97835      |     113339
       8  | 25:11.15 |    3:40.30   |      113340      |     129869
       9  | 28:51.45 |    3:25.17   |      129870      |     145261
      10  | 32:16.62 |    3:22.18   |      145262      |     160429
      11  | 35:39.05 |    4:08.62   |      160430      |     179091
      12  | 39:47.67 |    3:24.73   |      179092      |     194464
      13  | 43:12.65 |    3:32.70   |      194465      |     210434
      14  | 46:45.60 |    3:24.27   |      210435      |     225761
      15  | 50:10.12 |    3:36.13   |      225762      |     241974
      16  | 53:46.25 |    3:20.35   |      241975      |     257009
      17  | 57:06.60 |    3:38.57   |      257010      |     273416
      18  | 60:45.42 |    3:25.05   |      273417      |     288796
      19  | 64:10.47 |    3:14.10   |      288797      |     303356
      20  | 67:24.57 |    3:31.65   |      303357      |     319246
      21  | 70:56.47 |    3:39.00   |      319247      |     335671
      22  | 74:35.47 |    3:12.60   |      335672      |     350131
Характеристики диапазона извлечения и сообщения об ошибках
Выбранный диапазон
     Имя файла C:\Users\adard72\Desktop\Bad Boys Blue  ‎–  Bad Boys Best 2001\Bad Boys Blue - Bad Boys Best 2001.wav
     Пиковый уровень 100.0 %
     Скорость извлечения 2.4 X
     Качество диапазона 100.0 %
     CRC теста B38D09F2
     CRC копии B38D09F2
     Копирование... OK
Ошибок не произошло
AccurateRip: сводка
Трек  1  точность не определена (достоверность 7)  [7EC4CBC9], AccurateRip вернул [5198CC55]  (AR v2)
Трек  2  точность не определена (достоверность 7)  [5D78153B], AccurateRip вернул [F1EF9626]  (AR v2)
Трек  3  точность не определена (достоверность 7)  [AB8F7C21], AccurateRip вернул [DE1F94D0]  (AR v2)
Трек  4  точность не определена (достоверность 7)  [BA5F228A], AccurateRip вернул [43BA8483]  (AR v2)
Трек  5  точность не определена (достоверность 7)  [587DC574], AccurateRip вернул [DC9521C0]  (AR v2)
Трек  6  точность не определена (достоверность 7)  [EA4B74A4], AccurateRip вернул [7A24634E]  (AR v2)
Трек  7  точность не определена (достоверность 7)  [F5EF7B69], AccurateRip вернул [1D8C2BDB]  (AR v2)
Трек  8  точность не определена (достоверность 7)  [1E0EDEB5], AccurateRip вернул [21DA6F2F]  (AR v2)
Трек  9  точность не определена (достоверность 7)  [DF27E532], AccurateRip вернул [2BEE196F]  (AR v2)
Трек 10  точность не определена (достоверность 7)  [AA0DB567], AccurateRip вернул [934148D0]  (AR v2)
Трек 11  точность не определена (достоверность 7)  [803EB140], AccurateRip вернул [CF80FC3C]  (AR v2)
Трек 12  точность не определена (достоверность 7)  [D66514E7], AccurateRip вернул [4DDB6FB2]  (AR v2)
Трек 13  точность не определена (достоверность 7)  [0823D9D1], AccurateRip вернул [C4006A5E]  (AR v2)
Трек 14  точность не определена (достоверность 7)  [49E5B0D9], AccurateRip вернул [CF4C28BD]  (AR v2)
Трек 15  точность не определена (достоверность 7)  [92AFDC10], AccurateRip вернул [6A832CB6]  (AR v2)
Трек 16  точность не определена (достоверность 7)  [11C614D4], AccurateRip вернул [312D9CB8]  (AR v2)
Трек 17  точность не определена (достоверность 7)  [367686D1], AccurateRip вернул [1F9933E8]  (AR v2)
Трек 18  точность не определена (достоверность 7)  [86FD456C], AccurateRip вернул [39AE0EC7]  (AR v2)
Трек 19  точность не определена (достоверность 7)  [FF3470A4], AccurateRip вернул [84550B44]  (AR v2)
Трек 20  точность не определена (достоверность 7)  [F99C16BA], AccurateRip вернул [7D44B088]  (AR v2)
Трек 21  точность не определена (достоверность 7)  [3F5E230A], AccurateRip вернул [9EF61F74]  (AR v2)
Трек 22  точность не определена (достоверность 7)  [55CC4BB1], AccurateRip вернул [2E6DB5C4]  (AR v2)
Ни один трек не прошёл проверки на точность
В вашей базе может быть иной вариант штамповки диска
Конец отчёта
==== Контрольная сумма отчёта 55A03333E3C7451E6C9B18EFD00378F12395201C2F8C94401F582C7DF36F9978 ====

Отчёт auCDtect Task manager:

-----------------------
DON'T MODIFY THIS FILE
-----------------------
PERFORMER: auCDtect Task Manager, ver. 1.6.0 RC1 build 1.6.0.1
Copyright (c) 2008-2010 y-soft. All rights reserved
http://y-soft.org
ANALYZER: auCDtect: CD records authenticity detector, version 0.8.2
Copyright (c) 2004 Oleg Berngardt. All rights reserved.
Copyright (c) 2004 Alexander Djourik. All rights reserved.
FILE: Bad Boys Blue - Bad Boys Best 2001.flac
  Size: 605166921 Hash: 74247A3D1D3F699572B6044E1A725C33 Accuracy: -m0
  Conclusion: CDDA 100%
  Signature: E90B08072FE04E268832BCCC9A1A81E029F9C769
https://www.youtube.com/watch?v=70KDNjBTtiYНе жилим спасибо. Не забываем голосовать за трекер!!!

Топик был перенесен из форума Disco, Italo-Disco, Hi-NRG в форум Eurodance, Technopop, Disco (lossless)
Magnat


Показать сообщения:    

Текущее время: 18-Авг 21:17

Часовой пояс: UTC + 3


Вы не можете начинать темы
Вы не можете отвечать на сообщения
Вы не можете редактировать свои сообщения
Вы не можете удалять свои сообщения
Вы не можете голосовать в опросах
Вы не можете прикреплять файлы к сообщениям
Вы не можете скачивать файлы

!ВНИМАНИЕ!
Сайт не предоставляет электронные версии произведений, а занимается лишь коллекционированием и каталогизацией ссылок, присылаемых и публикуемых на форуме нашими читателями. Если вы являетесь правообладателем какого-либо представленного материала и не желаете, чтобы ссылка на него находилась в нашем каталоге, свяжитесь с нами, и мы незамедлительно удалим ее. Файлы для обмена на трекере предоставлены пользователями сайта, и администрация не несет ответственности за их содержание. Просьба не заливать файлы, защищенные авторскими правами, а также файлы нелегального содержания!