[Цитировать]

VA - From Russia With Italo Disco (2012) - Год: 2012
Жанр: Italo-Disco
Лейбл: SP Records
Каталог #: SP0002
Продолжительность: 01:15:17
Кодек: FLAC
Битрейт: Lossless
Тип рипа: image+.cue+covers
Треклист:
01. I Wanna Touch Your Body Now (Extended Version) (Magic System D.J.) [06:44]
02. Flute Cries (Maxi Version) (Siberian Heat) [08:11]
03. Harsh Wind (Duro Mix) (Dyva) [07:01]
04. When I Close My Eyes (Squash Gang) [06:16]
05. Only Mine (Solo Mio) (Marylinn) [06:43]
06. Mode (One) [07:01]
07. With Or Without You (Vocal Version) (Modo) [05:29]
08. The Witch (Original Version) (Riccardo Campa) [05:52]
09. Don't Run Away (Extended Version) (Andy Romano) [07:04]
10. Latina Angel (Album Version) (Peter Aresti) [08:44]
11. Love Me Again (Extended Version) (Magic System D.J.) [06:06]

Отчёт ЕАС:

Exact Audio Copy V1.0 beta 3 from 29. August 2011
EAC extraction logfile from 24. December 2013, 0:07
Various Artists / From Russia With Italo Disco Vol I
Used drive  : SlimtypeeTAU108   2   Adapter: 7  ID: 0
Read mode               : Secure
Utilize accurate stream : Yes
Defeat audio cache      : Yes
Make use of C2 pointers : No
Read offset correction                      : 6
Overread into Lead-In and Lead-Out          : No
Fill up missing offset samples with silence : Yes
Delete leading and trailing silent blocks   : No
Null samples used in CRC calculations       : Yes
Used interface                              : Installed external ASPI interface
Used output format              : User Defined Encoder
Selected bitrate                : 1024 kBit/s
Quality                         : High
Add ID3 tag                     : No
Command line compressor         : C:\Program Files\Exact Audio Copy\Flac\flac.exe
Additional command line options : -V -8 -T "Genre=%genre%" -T "Artist=%artist%" -T "Title=%title%" -T "Album=%albumtitle%" -T "Date=%year%" -T "Tracknumber=%tracknr%" -T "Comment=%comment%" %source%
TOC of the extracted CD
     Track |   Start  |  Length  | Start sector | End sector
    ---------------------------------------------------------
        1  |  0:00.00 |  6:44.09 |         0    |    30308
        2  |  6:44.09 |  8:11.28 |     30309    |    67161
        3  | 14:55.37 |  7:01.04 |     67162    |    98740
        4  | 21:56.41 |  6:16.37 |     98741    |   126977
        5  | 28:13.03 |  6:43.45 |    126978    |   157247
        6  | 34:56.48 |  7:01.69 |    157248    |   188891
        7  | 41:58.42 |  5:30.00 |    188892    |   213641
        8  | 47:28.42 |  5:52.39 |    213642    |   240080
        9  | 53:21.06 |  7:04.21 |    240081    |   271901
       10  | 60:25.27 |  8:44.24 |    271902    |   311225
       11  | 69:09.51 |  6:06.65 |    311226    |   338740
Range status and errors
Selected range
     Filename C:\Temp\VA - From Russia With Italo Disco Vol I (2012).wav
     Peak level 100.0 %
     Extraction speed 4.1 X
     Range quality 99.9 %
     Test CRC 9BFA0AB6
     Copy CRC 9BFA0AB6
     Copy OK
No errors occurred
AccurateRip summary
Track  1  accurately ripped (confidence 1)  [1FD89BCF]  (AR v1)
Track  2  accurately ripped (confidence 1)  [8CB7D7FB]  (AR v1)
Track  3  accurately ripped (confidence 1)  [AF6AD8D0]  (AR v1)
Track  4  accurately ripped (confidence 1)  [192C7CAD]  (AR v1)
Track  5  accurately ripped (confidence 1)  [160FE1A2]  (AR v1)
Track  6  accurately ripped (confidence 1)  [0B3A99D1]  (AR v1)
Track  7  accurately ripped (confidence 1)  [C421C59D]  (AR v1)
Track  8  accurately ripped (confidence 1)  [AF3CD6D0]  (AR v1)
Track  9  accurately ripped (confidence 1)  [FE9FDD84]  (AR v1)
Track 10  accurately ripped (confidence 1)  [B861D945]  (AR v1)
Track 11  accurately ripped (confidence 1)  [1BF93C4E]  (AR v1)
All tracks accurately ripped
End of status report
==== Log checksum E4ADDEB26A819FFDE21EE47D835C7A654C1D27CA20524A720A1D2538FE696025 ====

Отчёт auCDtect Task manager:

-----------------------
DON'T MODIFY THIS FILE
-----------------------
PERFORMER: auCDtect Task Manager, ver. 1.6.0 RC1 build 1.6.0.1
Copyright (c) 2008-2010 y-soft. All rights reserved
http://y-soft.org
ANALYZER: auCDtect: CD records authenticity detector, version 0.8.2
Copyright (c) 2004 Oleg Berngardt. All rights reserved.
Copyright (c) 2004 Alexander Djourik. All rights reserved.
FILE: VA - From Russia With Italo Disco.flac
  Size: 529715540 Hash: AD446B44F3E954543168F90D359EEFC0 Accuracy: -m0
  Conclusion: CDDA 100%
  Signature: B7BFAEC385D479BD3D2D7F93A14B7D1879045AEE
Не жилим спасибо. Не забываем голосовать за трекер!!!

Топик был перенесен из форума Disco, Italo-Disco, Hi-NRG в форум Eurodance, Technopop, Disco (lossless)
Magnat


Показать сообщения:    

Текущее время: 22-Окт 04:36

Часовой пояс: UTC + 3


Вы не можете начинать темы
Вы не можете отвечать на сообщения
Вы не можете редактировать свои сообщения
Вы не можете удалять свои сообщения
Вы не можете голосовать в опросах
Вы не можете прикреплять файлы к сообщениям
Вы не можете скачивать файлы

!ВНИМАНИЕ!
Сайт не предоставляет электронные версии произведений, а занимается лишь коллекционированием и каталогизацией ссылок, присылаемых и публикуемых на форуме нашими читателями. Если вы являетесь правообладателем какого-либо представленного материала и не желаете, чтобы ссылка на него находилась в нашем каталоге, свяжитесь с нами, и мы незамедлительно удалим ее. Файлы для обмена на трекере предоставлены пользователями сайта, и администрация не несет ответственности за их содержание. Просьба не заливать файлы, защищенные авторскими правами, а также файлы нелегального содержания!