[Цитировать]

Nana - Father (1998) - Год: 1998
Жанр: RnB, Swing, Pop Rap
Продолжительность: 00:53:28
Лейбл: Motor Music GMBH
Каталог #: 044077-2
Страна-производитель диска: Germany
Источник (релизер): Собственный рип
Кодек: FLAC
Битрейт: Lossless
Тип Рипа: tracks+.cue
Треклист:
01. Father (5:06)
02. Do You Really Think You Know Me? (4:32)
03. Remember the Time (4:38)
04. Nigga 4 Life (3:35)
05. Dreams (4:29)
06. Judgement Day (5:42)
07. Too Much Heaven (4:01)
08. You (4:26)
09. Pocket Full of Memories (5:10)
10. That's the Way Life Goes (4:56)
11. God (4:17)

Отчёт ЕАС:

Exact Audio Copy V1.1 from 23. June 2015
EAC extraction logfile from 30. November 2015, 19:31
Nana / Father
Used drive  : ASUS    BW-12D1S-U   Adapter: 1  ID: 0
Read mode               : Secure
Utilize accurate stream : Yes
Defeat audio cache      : Yes
Make use of C2 pointers : No
Read offset correction                      : 667
Overread into Lead-In and Lead-Out          : No
Fill up missing offset samples with silence : Yes
Delete leading and trailing silent blocks   : No
Null samples used in CRC calculations       : Yes
Used interface                              : Native Win32 interface for Win NT & 2000
Gap handling                                : Appended to previous track
Used output format              : User Defined Encoder
Selected bitrate                : 768 kBit/s
Quality                         : High
Add ID3 tag                     : No
Command line compressor         : D:\Program Files (x86)\Exact Audio Copy\Flac\flac.exe
Additional command line options : -8 -V -T "TITLE=%title%" -T "ARTIST=%artist%" -T "ALBUMARTIST=%albumartist%" -T "ALBUM=%albumtitle%" -T "DATE=%year%" -T "TRACKNUMBER=%tracknr%" -T "TRACKTOTAL=%numtracks%" -T "GENRE=%genre%" -T "COMMENT=%comment%" -T "PERFORMER=%albuminterpret%" -T "COMPOSER=%composer%" %source% -o %dest%
TOC of the extracted CD
     Track |   Start  |  Length  | Start sector | End sector
    ---------------------------------------------------------
        1  |  0:00.00 |  5:06.01 |         0    |    22950
        2  |  5:06.01 |  4:32.14 |     22951    |    43364
        3  |  9:38.15 |  4:38.30 |     43365    |    64244
        4  | 14:16.45 |  3:35.31 |     64245    |    80400
        5  | 17:52.01 |  4:29.19 |     80401    |   100594
        6  | 22:21.20 |  5:42.29 |    100595    |   126273
        7  | 28:03.49 |  4:01.35 |    126274    |   144383
        8  | 32:05.09 |  4:26.35 |    144384    |   164368
        9  | 36:31.44 |  5:10.59 |    164369    |   187677
       10  | 41:42.28 |  4:56.42 |    187678    |   209919
       11  | 46:38.70 |  4:17.20 |    209920    |   229214
       12  | 53:28.15 |  2:44.36 |    240615    |   252950
Track  1
     Filename D:\Video&Music&Books\1998 - Father\01 Father.wav
     Pre-gap length  0:00:02.00
     Peak level 100.0 %
     Extraction speed 1.1 X
     Track quality 100.0 %
     Test CRC 5AB3AB5B
     Copy CRC 5AB3AB5B
     Accurately ripped (confidence 9)  [0E46EA99]  (AR v2)
     Copy OK
Track  2
     Filename D:\Video&Music&Books\1998 - Father\02 Do You Really Think You Know Me.wav
     Pre-gap length  0:00:01.50
     Peak level 100.0 %
     Extraction speed 1.2 X
     Track quality 100.0 %
     Test CRC 33E18010
     Copy CRC 33E18010
     Accurately ripped (confidence 9)  [55E9DF05]  (AR v2)
     Copy OK
Track  3
     Filename D:\Video&Music&Books\1998 - Father\03 Remember the Time.wav
     Pre-gap length  0:00:01.50
     Peak level 100.0 %
     Extraction speed 1.3 X
     Track quality 100.0 %
     Test CRC A525E1B6
     Copy CRC A525E1B6
     Accurately ripped (confidence 10)  [5F1643A7]  (AR v2)
     Copy OK
Track  4
     Filename D:\Video&Music&Books\1998 - Father\04 Nigga 4 Life.wav
     Pre-gap length  0:00:01.50
     Peak level 100.0 %
     Extraction speed 1.4 X
     Track quality 100.0 %
     Test CRC DB08482A
     Copy CRC DB08482A
     Accurately ripped (confidence 9)  [96A54A81]  (AR v2)
     Copy OK
Track  5
     Filename D:\Video&Music&Books\1998 - Father\05 Dreams.wav
     Pre-gap length  0:00:01.50
     Peak level 100.0 %
     Extraction speed 1.3 X
     Track quality 99.9 %
     Test CRC 3B1E5C42
     Copy CRC 3B1E5C42
     Accurately ripped (confidence 10)  [256A4F90]  (AR v2)
     Copy OK
Track  6
     Filename D:\Video&Music&Books\1998 - Father\06 Judgement Day.wav
     Pre-gap length  0:00:01.50
     Peak level 100.0 %
     Extraction speed 1.6 X
     Track quality 100.0 %
     Test CRC F042128C
     Copy CRC F042128C
     Accurately ripped (confidence 9)  [76183EF9]  (AR v2)
     Copy OK
Track  7
     Filename D:\Video&Music&Books\1998 - Father\07 Too Much Heaven.wav
     Pre-gap length  0:00:01.50
     Peak level 100.0 %
     Extraction speed 1.6 X
     Track quality 100.0 %
     Test CRC 3DDB33AD
     Copy CRC 3DDB33AD
     Accurately ripped (confidence 9)  [ACC70BD0]  (AR v2)
     Copy OK
Track  8
     Filename D:\Video&Music&Books\1998 - Father\08 You.wav
     Pre-gap length  0:00:01.50
     Peak level 100.0 %
     Extraction speed 1.7 X
     Track quality 100.0 %
     Test CRC 77DC6D95
     Copy CRC 77DC6D95
     Accurately ripped (confidence 9)  [072FF1B6]  (AR v2)
     Copy OK
Track  9
     Filename D:\Video&Music&Books\1998 - Father\09 Pocket Full of Memories.wav
     Pre-gap length  0:00:01.50
     Peak level 100.0 %
     Extraction speed 1.8 X
     Track quality 100.0 %
     Test CRC 31ADC1BC
     Copy CRC 31ADC1BC
     Accurately ripped (confidence 9)  [0241A193]  (AR v2)
     Copy OK
Track 10
     Filename D:\Video&Music&Books\1998 - Father\10 That's the Way Life Goes.wav
     Pre-gap length  0:00:01.50
     Peak level 100.0 %
     Extraction speed 1.9 X
     Track quality 100.0 %
     Test CRC 5C1F73CA
     Copy CRC 5C1F73CA
     Accurately ripped (confidence 9)  [897F2FE9]  (AR v2)
     Copy OK
Track 11
     Filename D:\Video&Music&Books\1998 - Father\11 God.wav
     Pre-gap length  0:00:01.50
     Peak level 100.0 %
     Extraction speed 1.9 X
     Track quality 100.0 %
     Test CRC 281CBFFA
     Copy CRC 281CBFFA
     Accurately ripped (confidence 9)  [99F6D6E9]  (AR v2)
     Copy OK
All tracks accurately ripped
No errors occurred
End of status report
---- CUETools DB Plugin V2.1.6
[CTDB TOCID: _4px82dA1pZEWCE_Ht5VvgSOc8M-] found
Submit result: _4px82dA1pZEWCE_Ht5VvgSOc8M- has been confirmed
Track | CTDB Status
  1   | (35/36) Accurately ripped
  2   | (35/36) Accurately ripped
  3   | (35/36) Accurately ripped
  4   | (35/36) Accurately ripped
  5   | (35/36) Accurately ripped
  6   | (34/36) Accurately ripped
  7   | (35/36) Accurately ripped
  8   | (35/36) Accurately ripped
  9   | (35/36) Accurately ripped
10   | (35/36) Accurately ripped
11   | (35/36) Accurately ripped
==== Log checksum 7889AD0A7CBC7848B22CE31B47387F4573DB02418577C9E9736F1B08C2C6C1D2 ====

Отчёт auCDtect Task manager:

-----------------------
DON'T MODIFY THIS FILE
-----------------------
PERFORMER: auCDtect Task Manager, ver. 1.6.0 RC1 build 1.6.0.1
Copyright (c) 2008-2010 y-soft. All rights reserved
http://y-soft.org
ANALYZER: auCDtect: CD records authenticity detector, version 0.8.2
Copyright (c) 2004 Oleg Berngardt. All rights reserved.
Copyright (c) 2004 Alexander Djourik. All rights reserved.
FILE: 11 God.flac
  Size: 27989963 Hash: 529C36124B1594E8342A7FAACC9F3B32 Accuracy: -m0
  Conclusion: CDDA 100%
  Signature: 3DF9BEF4A245FE1A047891E67DFF5BD4AB707E5C
FILE: 10 That's the Way Life Goes.flac
  Size: 33193920 Hash: 555B6263A36560DB296C9D160EFDAD42 Accuracy: -m0
  Conclusion: CDDA 100%
  Signature: 44CA1E853D24FB894EED1767CBBF56E6BAC9BD04
FILE: 09 Pocket Full of Memories.flac
  Size: 35330855 Hash: 78F92D9C92ED28B41CFD1DB73CA014F0 Accuracy: -m0
  Conclusion: CDDA 100%
  Signature: DABFEC94D7000B23DBC9CE77946F9A015601FDB1
FILE: 08 You.flac
  Size: 29746341 Hash: B0FD16F7B6F9E0F56DD91ECB49951EAB Accuracy: -m0
  Conclusion: CDDA 100%
  Signature: 786B302E707D5704DAFB0E3223D4429F47259037
FILE: 07 Too Much Heaven.flac
  Size: 30839892 Hash: 319040A938BB6E1B3AF2A4B04507607D Accuracy: -m0
  Conclusion: CDDA 100%
  Signature: 822E524099D73665C7085E0AAED0317B1EBAD900
FILE: 06 Judgement Day.flac
  Size: 41312751 Hash: 90583CC1F28B73E35B8CA169F64300F3 Accuracy: -m0
  Conclusion: CDDA 100%
  Signature: 8BF9C882A7773D0EB62AB64C6E4EB72855BBDC88
FILE: 05 Dreams.flac
  Size: 34920237 Hash: CE9D56EC21769D0F159BCC1110796822 Accuracy: -m0
  Conclusion: CDDA 100%
  Signature: 1BDC3B546134D4FB9C1F744E16DDC22481FFBFA8
FILE: 04 Nigga 4 Life.flac
  Size: 23435439 Hash: 234E20C563ADAAF20A19C1C3430A0E11 Accuracy: -m0
  Conclusion: CDDA 100%
  Signature: 4118C2D7D54B4B09C34FDE4D461316E9CD1F2271
FILE: 03 Remember the Time.flac
  Size: 36337242 Hash: BAFAB1F678EB337A86484BE0DF33BE4F Accuracy: -m0
  Conclusion: CDDA 99%
  Signature: 48552A711F8C4C3240C57782ADFD86D7D51C31C6
FILE: 02 Do You Really Think You Know Me.flac
  Size: 30265738 Hash: 3916D61D5787D42F65138110E18BA1FA Accuracy: -m0
  Conclusion: CDDA 100%
  Signature: A0DD983E3756F909DB58E446D08A6F246FD34022
FILE: 01 Father.flac
  Size: 34810694 Hash: B053DA53C1D10906B55E4E594F1ECFE5 Accuracy: -m0
  Conclusion: CDDA 100%
  Signature: 33B76B80E08FEE96D71CAD9EDB22573D93C848DA

Спектрограмма:



Показать сообщения:    

Текущее время: 15-Ноя 09:47

Часовой пояс: UTC + 3


Вы не можете начинать темы
Вы не можете отвечать на сообщения
Вы не можете редактировать свои сообщения
Вы не можете удалять свои сообщения
Вы не можете голосовать в опросах
Вы не можете прикреплять файлы к сообщениям
Вы не можете скачивать файлы

!ВНИМАНИЕ!
Сайт не предоставляет электронные версии произведений, а занимается лишь коллекционированием и каталогизацией ссылок, присылаемых и публикуемых на форуме нашими читателями. Если вы являетесь правообладателем какого-либо представленного материала и не желаете, чтобы ссылка на него находилась в нашем каталоге, свяжитесь с нами, и мы незамедлительно удалим ее. Файлы для обмена на трекере предоставлены пользователями сайта, и администрация не несет ответственности за их содержание. Просьба не заливать файлы, защищенные авторскими правами, а также файлы нелегального содержания!