[Цитировать]

Чудо-полицейский / Магический полицейский / Magic cop / Qu mo jing cha
Страна: Гонконг
Жанр: Комедия, ужасы
Год выпуска: 1990
Продолжительность: 01:27:51
Перевод: Авторский (одноголосый закадровый) Павел Санаев
Cубтитры: нет
Режиссер: Стивен Тунг / Stephen Tung
В ролях: Лам Чинг-Йинг, Уилсон Лам, Майкл Миу, Вонг Мей-Ва, Ву Ма, Митико Нисиваки, Билли Чоу, Фрэнки Чан
Описание: Полиция сталкивается со странным делом, которое сложно объяснить научно. Чтобы ситуация прояснилась, на помощь вызывают странноватого полицейского, имеющего большие познания в области магии и геомантии. Чтобы он не натворил никаких бед, к нему в напарники приставляют двух молодых копов, причём если один из них категорически не верит в волшебство и считает вызванного копа старым дуралеем, то другой в полицейском маге просто души не чает. Но и тот и другой готовы приударить за симпатичной племянницей мага.
Доп. информация: Дорожка с П. Санаевым синхронизирована и наложена ale_x2008 при помощи Adobe Audition, Sony Vegas и VirtualDubMod.
За оцифрованную с VHS дорожку благодарим - SUPERDVD01

Сэмпл: https://yadi.sk/i/NUYe67yeqvqjF
Качество видео: DVDRip [CG]
Формат видео: AVI
Видео: XviD Final, 672x384 (1.75:1), 23.976 fps, 1310 kbps avg, 0.21 bit/pixel
Аудио: AC3 Dolby Digital, 48000Hz, 2/0 (L,R) ch (mono), 192.00 kbps avg

MediaInfo

Чудо-полицейский - Qu mo jing cha (by ale_x2008) .avi
Format : AVI
Format/Info : Audio Video Interleave
File size : 950 MiB
Duration : 1h 27mn
Overall bit rate : 1 512 Kbps
Movie name : Чудо-полицейский - Qu mo jing cha (by ale_x2008)
Director : by ale_x2008
Writing application : VirtualDubMod 1.5.10.3 (build 2550/release)
Copyright : Edich2
Comment : RuTracker.org
Video
ID : 0
Format : MPEG-4 Visual
Format profile : [email protected]
Format settings, BVOP : 2
Format settings, QPel : No
Format settings, GMC : No warppoints
Format settings, Matrix : Default (MPEG)
Codec ID : XVID
Codec ID/Hint : XviD
Duration : 1h 27mn
Bit rate : 1 311 Kbps
Width : 672 pixels
Height : 384 pixels
Display aspect ratio : 16:9
Frame rate : 23.976 (23976/1000) fps
Color space : YUV
Chroma subsampling : 4:2:0
Bit depth : 8 bits
Scan type : Progressive
Compression mode : Lossy
Bits/(Pixel*Frame) : 0.212
Stream size : 824 MiB (87%)
Writing library : XviD 1.0.3 (UTC 2004-12-20)
Audio
ID : 1
Format : AC-3
Format/Info : Audio Coding 3
Mode extension : CM (complete main)
Format settings, Endianness : Big
Codec ID : 2000
Duration : 1h 27mn
Bit rate mode : Constant
Bit rate : 192 Kbps
Channel(s) : 2 channels
Channel positions : Front: L R
Sampling rate : 48.0 KHz
Frame rate : 31.250 fps (1536 spf)
Compression mode : Lossy
Stream size : 121 MiB (13%)
Alignment : Split accross interleaves
Interleave, duration : 42 ms (1.00 video frame)
Interleave, preload duratio : 500 ms

Скриншоты


Топик был перенесен из форума Азиатское кино в форум Temp
MOT®OSS


Показать сообщения:    

Текущее время: 13-Ноя 06:15

Часовой пояс: UTC + 3


Вы не можете начинать темы
Вы не можете отвечать на сообщения
Вы не можете редактировать свои сообщения
Вы не можете удалять свои сообщения
Вы не можете голосовать в опросах
Вы не можете прикреплять файлы к сообщениям
Вы не можете скачивать файлы

!ВНИМАНИЕ!
Сайт не предоставляет электронные версии произведений, а занимается лишь коллекционированием и каталогизацией ссылок, присылаемых и публикуемых на форуме нашими читателями. Если вы являетесь правообладателем какого-либо представленного материала и не желаете, чтобы ссылка на него находилась в нашем каталоге, свяжитесь с нами, и мы незамедлительно удалим ее. Файлы для обмена на трекере предоставлены пользователями сайта, и администрация не несет ответственности за их содержание. Просьба не заливать файлы, защищенные авторскими правами, а также файлы нелегального содержания!