[Цитировать]

- Munich Machine - Body Shine (1979) Reissue, 2013, Repertoire Records - Год: 1979
Жанр: Disco, Electronic
Издание: Repertoire Records – REP 5226
Продолжительность: 01:01:58
Кодек: FLAC
Битрейт: Lossless
Тип рипа: image + .cue+covers
Треклист:
01. Party Light (6:03)
02. Fallen Angel (5:24)
03. Space Warrior (4:17)
04. Let Your Body Shine (4:35)
05. Reputation (5:15)
06. Easy (4:00)
07. Bolectro (3:57)
08. Party Light (Single Version) (3:30)
09. Bolectro (Single Version) (3:04)
10. Space Warriors (Blue Exed DJ Remix) (4:28)
11. Giorgio Moroder Medley - Giorgio Moroder (17:25)

Отчёт EAC:

Exact Audio Copy V1.0 beta 3 from 29. August 2011
Отчёт EAC об извлечении, выполненном 4. июня 2014, 5:27
Munich Machine / Body Shine
Дисковод: TSSTcorpCDDVDW SH-224DB   Adapter: 1  ID: 0
Режим чтения                 : Достоверность
Использование точного потока : Да
Отключение кэша аудио        : Да
Использование указателей C2  : Нет
Коррекция смещения при чтении                     : 6
Способность читать области Lead-in и Lead-out     : Нет
Заполнение пропущенных сэмплов тишиной            : Да
Удаление блоков с тишиной в начале и конце        : Нет
При вычислениях CRC использовались нулевые сэмплы : Да
Интерфейс                                         : Встроенный Win32-интерфейс для Win NT/2000
Выходной формат          : Пользовательский кодировщик
Выбранный битрейт        : 768 kBit/s
Качество                 : Высокий
Добавление ID3-тега      : Нет
Утилита сжатия           : C:\Program Files\Exact Audio Copy\Flac\flac.exe
Дополнительные параметры : -V -8 -T "Date=%year%" -T "Genre=%genre%" %source%
TOC извлечённого CD
     Трек |   Старт  | Длительность | Начальный сектор | Конечный сектор
    ---------------------------------------------------------------------
       1  |  0:00.00 |    6:03.01   |           0      |      27225
       2  |  6:03.01 |    5:24.03   |       27226      |      51528
       3  | 11:27.04 |    4:16.46   |       51529      |      70774
       4  | 15:43.50 |    4:34.72   |       70775      |      91396
       5  | 20:18.47 |    5:15.23   |       91397      |     115044
       6  | 25:33.70 |    3:59.72   |      115045      |     133041
       7  | 29:33.67 |    3:56.48   |      133042      |     150789
       8  | 33:30.40 |    3:30.18   |      150790      |     166557
       9  | 37:00.58 |    3:03.52   |      166558      |     180334
      10  | 40:04.35 |    4:28.05   |      180335      |     200439
      11  | 44:32.40 |   17:25.35   |      200440      |     278849
Характеристики диапазона извлечения и сообщения об ошибках
Выбранный диапазон
     Имя файла D:\lo$$le$$\munich machine'79\Munich Machine - Body Shine.wav
     Пиковый уровень 99.5 %
     Скорость извлечения 7.5 X
     Качество диапазона 100.0 %
     CRC теста C5065592
     CRC копии C5065592
     Копирование... OK
Ошибок не произошло
Конец отчёта
==== Контрольная сумма отчёта 03F060325FB1D1C738B33B4E5775BA9E5DA345672BE7BACA6D8CA45AFCC0A530 ====

Отчёт auCDtect Task manager:

-----------------------
DON'T MODIFY THIS FILE
-----------------------
PERFORMER: auCDtect Task Manager, ver. 1.6.0 RC1 build 1.6.0.1
Copyright (c) 2008-2010 y-soft. All rights reserved
http://y-soft.org
ANALYZER: auCDtect: CD records authenticity detector, version 0.8.2
Copyright (c) 2004 Oleg Berngardt. All rights reserved.
Copyright (c) 2004 Alexander Djourik. All rights reserved.
FILE: Munich Machine - Body Shine.flac
  Size: 461613691 Hash: 8012305C8AB2BE6BE3AD76E290597F45 Accuracy: -m0
  Conclusion: CDDA 100%
  Signature: EFA33E61EC4E27D3CEC326751621F63BA369DCF8
-Время раздачи: Пн-Пт с 18:00 до 21:00 , Сб-Вс с 09:00 до 21:00 (до появления первых 3-5 скачавших)

Топик был перенесен из форума Disco, Italo-Disco, Hi-NRG в форум Eurodance, Technopop, Disco (lossless)
Magnat


Показать сообщения:    

Текущее время: 20-Июн 23:54

Часовой пояс: UTC + 3


Вы не можете начинать темы
Вы не можете отвечать на сообщения
Вы не можете редактировать свои сообщения
Вы не можете удалять свои сообщения
Вы не можете голосовать в опросах
Вы не можете прикреплять файлы к сообщениям
Вы не можете скачивать файлы

!ВНИМАНИЕ!
Сайт не предоставляет электронные версии произведений, а занимается лишь коллекционированием и каталогизацией ссылок, присылаемых и публикуемых на форуме нашими читателями. Если вы являетесь правообладателем какого-либо представленного материала и не желаете, чтобы ссылка на него находилась в нашем каталоге, свяжитесь с нами, и мы незамедлительно удалим ее. Файлы для обмена на трекере предоставлены пользователями сайта, и администрация не несет ответственности за их содержание. Просьба не заливать файлы, защищенные авторскими правами, а также файлы нелегального содержания!