[Цитировать]

[4K WEB-DL ] Инопланетное вторжение: Битва за Лос-Анджелес / Battle Los Angeles ( Джонатан Либесман) [2160p] Производство: США
Жанр: Фантастика, Боевик
Продолжительность: 01:56:16
Перевод: Дублированный
Вид субтитров: Вшитые, отключаемые
Язык субтитров: Русский, Английский
Режиссер: Джонатан Либесман
Актеры: Аарон Экхарт, Мишель Родригес, Бриджет Мойнэхэн, Майкл Пенья, Рамон Родригес, Уилл Ротхаар, Кори Хардрикт, Джим Пэррак, Джино Энтони Песи, Не-Ё
Описание:
Землю пытается захватить инопланетная цивилизация, истребляя все живое на своем пути. По всему миру начинается широкомасштабное сражение человечества за выживание. Отряду морских пехотинцев поручено во что бы то ни стало освободить осажденный город ангелов от таинственных и смертоносных тварей…

Возраст: 12+ (зрителям, достигшим 12 лет)
Рейтинг MPAA: PG-13 (детям до 13 лет просмотр нежелателен)
Релиз от: ULTRAHDCLUB
Качество видео: WEB-DL
Видео: AVC/H.264, 3840x1606, ~46,7 Mbps
Аудио 01: DTS-HD MA, 6 ch, ~2474 Kbps - Английский
Аудио 02: AC3, 6 ch, 448 Kbps - Русский
Аудио 03: AC3, 6 ch, 448 Kbps - Украинский

Mediainfo:

Format                                   : Matroska
Format version                           : Version 4 / Version 2
File size                                : 40.7 GiB
Duration                                 : 1 h 56 min
Overall bit rate                         : 50.1 Mb/s
Movie name                               : Battle Los Angeles (2011) - Release for ULTRAHDCLUB
Encoded date                             : UTC 2015-12-24 15:08:27
Writing application                      : mkvmerge v8.5.1 ('Where you lead I will follow') 64bit
Writing library                          : libebml v1.3.3 + libmatroska v1.4.4
Cover                                    : Yes
Attachments                              : cover.jpg / xlog.txt
Video
ID                                       : 1
Format                                   : AVC
Format/Info                              : Advanced Video Codec
Format profile                           : [url=mailto:[email protected]][email protected][/url]
Format settings, CABAC                   : Yes
Format settings, ReFrames                : 5 frames
Codec ID                                 : V_MPEG4/ISO/AVC
Duration                                 : 1 h 56 min
Bit rate                                 : 46.7 Mb/s
Width                                    : 3 840 pixels
Height                                   : 1 606 pixels
Display aspect ratio                     : 2.40:1
Frame rate mode                          : Constant
Frame rate                               : 23.976 (24000/1001) FPS
Color space                              : YUV
Chroma subsampling                       : 4:2:0
Bit depth                                : 8 bits
Scan type                                : Progressive
Bits/(Pixel*Frame)                       : 0.316
Stream size                              : 37.9 GiB (93%)
Title                                    : Battle Los Angeles (2011) - Release for ULTRAHDCLUB
Writing library                          : x264 core 148 r2638 7599210
Encoding settings                        : cabac=1 / ref=5 / deblock=1:-2:-2 / analyse=0x3:0x133 / me=umh / subme=10 / psy=1 / psy_rd=1.15:0.00 / mixed_ref=1 / me_range=48 / chroma_me=1 / trellis=2 / 8x8dct=1 / cqm=0 / deadzone=21,11 / fast_pskip=1 / chroma_qp_offset=-2 / threads=12 / lookahead_threads=2 / sliced_threads=0 / nr=0 / decimate=0 / interlaced=0 / bluray_compat=0 / constrained_intra=0 / bframes=8 / b_pyramid=2 / b_adapt=2 / b_bias=0 / direct=3 / weightb=1 / open_gop=0 / weightp=2 / keyint=240 / keyint_min=23 / scenecut=40 / intra_refresh=0 / rc_lookahead=60 / rc=crf / mbtree=1 / crf=18.0 / qcomp=0.70 / qpmin=0 / qpmax=69 / qpstep=4 / vbv_maxrate=300000 / vbv_bufsize=300000 / crf_max=0.0 / nal_hrd=none / filler=0 / ip_ratio=1.30 / aq=1:0.70
Language                                 : English
Default                                  : Yes
Forced                                   : No
Audio #1
ID                                       : 2
Format                                   : DTS
Format/Info                              : Digital Theater Systems
Format profile                           : MA / Core
Mode                                     : 16
Format settings, Endianness              : Big
Codec ID                                 : A_DTS
Duration                                 : 1 h 56 min
Bit rate mode                            : Variable / Constant
Bit rate                                 : 2 474 kb/s / 1 509 kb/s
Channel(s)                               : 6 channels
Channel positions                        : Front: L C R, Side: L R, LFE
Sampling rate                            : 48.0 kHz
Frame rate                               : 93.750 FPS (512 spf)
Bit depth                                : 16 bits
Compression mode                         : Lossless / Lossy
Delay relative to video                  : 2 s 0 ms
Stream size                              : 2.01 GiB (5%)
Title                                    : DTS HD 5.1 - Blu-ray
Language                                 : English
Default                                  : Yes
Forced                                   : Yes
Audio #2
ID                                       : 3
Format                                   : AC-3
Format/Info                              : Audio Coding 3
Mode extension                           : CM (complete main)
Format settings, Endianness              : Big
Codec ID                                 : A_AC3
Duration                                 : 1 h 56 min
Bit rate mode                            : Constant
Bit rate                                 : 448 kb/s
Channel(s)                               : 6 channels
Channel positions                        : Front: L C R, Side: L R, LFE
Sampling rate                            : 48.0 kHz
Frame rate                               : 31.250 FPS (1536 spf)
Compression mode                         : Lossy
Delay relative to video                  : 2 s 7 ms
Stream size                              : 372 MiB (1%)
Title                                    : AC3 5.1 @ 448 kbps - Dub, Blu-ray CEE
Language                                 : Russian
Default                                  : No
Forced                                   : No
Audio #3
ID                                       : 4
Format                                   : AC-3
Format/Info                              : Audio Coding 3
Mode extension                           : CM (complete main)
Format settings, Endianness              : Big
Codec ID                                 : A_AC3
Duration                                 : 1 h 56 min
Bit rate mode                            : Constant
Bit rate                                 : 448 kb/s
Channel(s)                               : 6 channels
Channel positions                        : Front: L C R, Side: L R, LFE
Sampling rate                            : 48.0 kHz
Frame rate                               : 31.250 FPS (1536 spf)
Compression mode                         : Lossy
Delay relative to video                  : 2 s 7 ms
Stream size                              : 372 MiB (1%)
Title                                    : AC3 5.1 @ 448 kbps - Dub, Blu-ray CEE
Language                                 : Ukrainian
Default                                  : No
Forced                                   : No
Text #1
ID                                       : 5
Format                                   : UTF-8
Codec ID                                 : S_TEXT/UTF8
Codec ID/Info                            : UTF-8 Plain Text
Duration                                 : 1 h 48 min
Bit rate                                 : 1 b/s
Count of elements                        : 23
Stream size                              : 1.38 KiB (0%)
Language                                 : Russian
Default                                  : No
Forced                                   : No
Text #2
ID                                       : 6
Format                                   : UTF-8
Codec ID                                 : S_TEXT/UTF8
Codec ID/Info                            : UTF-8 Plain Text
Duration                                 : 1 h 50 min
Bit rate                                 : 92 b/s
Count of elements                        : 1358
Stream size                              : 75.4 KiB (0%)
Language                                 : Russian
Default                                  : No
Forced                                   : No
Text #3
ID                                       : 7
Format                                   : UTF-8
Codec ID                                 : S_TEXT/UTF8
Codec ID/Info                            : UTF-8 Plain Text
Duration                                 : 1 h 50 min
Bit rate                                 : 66 b/s
Count of elements                        : 1423
Stream size                              : 53.9 KiB (0%)
Language                                 : English
Default                                  : No
Forced                                   : No
Text #4
ID                                       : 8
Format                                   : UTF-8
Codec ID                                 : S_TEXT/UTF8
Codec ID/Info                            : UTF-8 Plain Text
Duration                                 : 1 h 51 min
Bit rate                                 : 71 b/s
Count of elements                        : 1536
Stream size                              : 57.9 KiB (0%)
Title                                    : SDH
Language                                 : English
Default                                  : No
Forced                                   : No
Menu
00:00:00.000                             : en:Chapter 1
00:11:49.250                             : en:Chapter 2
00:18:21.683                             : en:Chapter 3
00:22:24.509                             : en:Chapter 4
00:27:41.409                             : en:Chapter 5
00:35:19.659                             : en:Chapter 6
00:41:44.752                             : en:Chapter 7
00:47:57.916                             : en:Chapter 8
00:55:20.191                             : en:Chapter 9
01:02:02.176                             : en:Chapter 10
01:12:26.508                             : en:Chapter 11
01:17:50.957                             : en:Chapter 12
01:22:57.764                             : en:Chapter 13
01:30:23.417                             : en:Chapter 14
01:37:53.951                             : en:Chapter 15
01:47:12.008                             : en:Chapter 16
Скриншоты:
Время раздачи: 24/7 (до появления первых 3-5 скачавших)


Показать сообщения:    

Текущее время: 20-Июн 18:12

Часовой пояс: UTC + 3


Вы не можете начинать темы
Вы не можете отвечать на сообщения
Вы не можете редактировать свои сообщения
Вы не можете удалять свои сообщения
Вы не можете голосовать в опросах
Вы не можете прикреплять файлы к сообщениям
Вы не можете скачивать файлы

!ВНИМАНИЕ!
Сайт не предоставляет электронные версии произведений, а занимается лишь коллекционированием и каталогизацией ссылок, присылаемых и публикуемых на форуме нашими читателями. Если вы являетесь правообладателем какого-либо представленного материала и не желаете, чтобы ссылка на него находилась в нашем каталоге, свяжитесь с нами, и мы незамедлительно удалим ее. Файлы для обмена на трекере предоставлены пользователями сайта, и администрация не несет ответственности за их содержание. Просьба не заливать файлы, защищенные авторскими правами, а также файлы нелегального содержания!