[Цитировать]

-[4k BDRemux] Славные парни / Goodfellas ( Мартин Скорсезе) [2160p]-«Тридцать лет из жизни мафии»- Жанр: Триллер, Драма, Криминал, Биография
Производство: США
Режиссер: Мартин Скорсезе
Продолжительность: 02:25:27
Перевод: Дублированный, Двуголосый закадровый, Одноголосый закадровый
Язык субтитров: Русский, Английский
Вид субтитров: Вшитые отключаемые
Возрастные ограничения 16+
Актеры: Роберт Де Ниро, Рэй Лиотта, Джо Пеши, Лоррейн Бракко, Пол Сорвино, Фрэнк Сиверо, Тони Дарроу, Майк Старр, Фрэнк Винсент, Чак Лоу
Описание фильма:
Генри Хилл начинающий гангстер, занимающийся грабежами вместе с Джими Конвеем и Томми Де Вито, которые с легкостью убивают любого, кто встает у них на пути восхождения к вершинам Мафии. Приходит время когда Генри, сам пострадавший от своих напарников, должен приложить руку к началу конца Джими и Томми.
Славные парни (2016) | Русский Трейлер (Red-band)
Качество видео: BDRemux

Видеокодек: HEVC
Битрейт видео: ~59.5 Mbps, 2160p, 23,976 fps, 16:9
Размер кадра: 3840 х 2160
Аудио 01: Русский, AC3 5.1, 384 kbps, 48 kHz (DUB, Мост-Видео)
Аудио 02: Русский, AC3 2.0, 224 kbps, 48 kHz (DUB, Варус-видео)
Аудио 03: Русский, AC3 2.0, 192 kbps, 48 kHz (DVO, П. Гланц и И. Королёва)
Аудио 04: Русский, AC3 5.1, 640 kbps, 48 kHz (AVO, В. Горчаков)
Аудио 05: Русский, AC3 5.1, 640 kbps, 48 kHz (AVO, М. Чадов)
Аудио 06: Русский, AC3 5.1, 448 kbps, 48 kHz (AVO, Гаврилов)
Аудио 07: Русский, AC3 5.1, 640 kbps, 48 kHz (AVO, А. Михалёв)
Аудио 08: Русский, AC3 2.0, 192 kbps, 48 kHz (AVO, П. Прямостанов)
Аудио 09: Русский, AC3 5.1, 640 kbps, 48 kHz (AVO, Ю. Живов)
Аудио 10: Английский, AC3 5.1, 640 kbps, 48 kHz (Original)
Сэмпл: Скачать

MediaInfo:

Общее
Уникальный идентификатор : 182017564046974274351266456182661776465 (0x88EF4EC5718A2092972626C28B1F0451)
Полное имя : 1990.Goodfellas.2160p.4K.UltraHD.BDRemux.HEVC.10bit.[Zeus].RUS.2DUB.DVO.6AVO.mkv
Формат : Matroska
Версия формата : Version 4 / Version 2
Размер файла : 64,4 Гбайт
Продолжительность : 2 ч. 25 м.
Общий поток : 63,4 Мбит/сек
Дата кодирования : UTC 2016-12-29 09:57:18
Программа кодирования : mkvmerge v9.6.0 ('Slave To Your Mind') 64bit
Библиотека кодирования : libebml v1.3.4 + libmatroska v1.4.5
Видео
Идентификатор : 1
Формат : HEVC
Формат/Информация : High Efficiency Video Coding
Профиль формата : Main [email protected]@Main
Идентификатор кодека : V_MPEGH/ISO/HEVC
Продолжительность : 2 ч. 25 м.
Битрейт : 59,5 Мбит/сек
Ширина : 3840 пикселей
Высота : 2160 пикселей
Соотношение сторон : 16:9
Режим частоты кадров : Постоянный
Частота кадров : 23,976 (24000/1001) кадра/сек
Цветовое пространство : YUV
Субдискретизация насыщенности : 4:2:0
Битовая глубина : 10 бит
Бит/(Пиксели*Кадры) : 0.299
Размер потока : 60,4 Гбайт (94%)
Библиотека кодирования : x265 1.9+3-63308f7658c3:[Windows][GCC 5.2.0][64 bit] 10bit
Настройки программы : wpp / ctu=64 / min-cu-size=8 / max-tu-size=32 / tu-intra-depth=1 / tu-inter-depth=1 / me=1 / subme=2 / merange=57 / no-rect / no-amp / max-merge=2 / temporal-mvp / no-early-skip / rdpenalty=0 / no-tskip / no-tskip-fast / strong-intra-smoothing / no-lossless / no-cu-lossless / no-constrained-intra / no-fast-intra / open-gop / no-temporal-layers / interlace=0 / keyint=240 / min-keyint=24 / scenecut=40 / rc-lookahead=20 / lookahead-slices=8 / bframes=4 / bframe-bias=0 / b-adapt=2 / ref=3 / limit-refs=3 / no-limit-modes / weightp / no-weightb / aq-mode=1 / qg-size=32 / aq-strength=1.00 / cbqpoffs=0 / crqpoffs=0 / rd=3 / psy-rd=2.00 / rdoq-level=0 / psy-rdoq=0.00 / signhide / deblock / sao / no-sao-non-deblock / b-pyramid / cutree / no-intra-refresh / rc=abr / bitrate=61000 / qcomp=0.60 / qpmin=0 / qpmax=51 / qpstep=4 / ipratio=1.40 / pbratio=1.30
Default : Да
Forced : Нет
Цветовой диапазон : Limited
Основные цвета : BT.709
Характеристики трансфера : BT.709
Коэффициенты матрицы : BT.601
Аудио #1
Идентификатор : 2
Формат : AC-3
Формат/Информация : Audio Coding 3
Расширение режима : CM (complete main)
Параметр Endianness формата : Big
Идентификатор кодека : A_AC3
Продолжительность : 2 ч. 25 м.
Вид битрейта : Постоянный
Битрейт : 384 Кбит/сек
Каналы : 6 каналов
Расположение каналов : Front: L C R, Side: L R, LFE
Частота : 48,0 КГц
Частота кадров : 31,250 кадров/сек (1536 spf)
Битовая глубина : 16 бит
Метод сжатия : С потерями
Задержка видео : -200 мс.
Размер потока : 399 Мбайт (1%)
Заголовок : Дублированный (Мост Видео)
Язык : Russian
Default : Да
Forced : Да
Аудио #2
Идентификатор : 3
Формат : AC-3
Формат/Информация : Audio Coding 3
Расширение режима : CM (complete main)
Параметр Endianness формата : Big
Идентификатор кодека : A_AC3
Продолжительность : 2 ч. 25 м.
Вид битрейта : Постоянный
Битрейт : 224 Кбит/сек
Каналы : 2 канала
Расположение каналов : Front: L R
Частота : 48,0 КГц
Частота кадров : 31,250 кадров/сек (1536 spf)
Битовая глубина : 16 бит
Метод сжатия : С потерями
Задержка видео : -200 мс.
Размер потока : 233 Мбайт (0%)
Заголовок : Дублированный (Варус Видео)
Язык : Russian
Default : Нет
Forced : Нет
Аудио #3
Идентификатор : 4
Формат : AC-3
Формат/Информация : Audio Coding 3
Расширение режима : CM (complete main)
Параметр Endianness формата : Big
Идентификатор кодека : A_AC3
Продолжительность : 2 ч. 25 м.
Вид битрейта : Постоянный
Битрейт : 448 Кбит/сек
Каналы : 6 каналов
Расположение каналов : Front: L C R, Side: L R, LFE
Частота : 48,0 КГц
Частота кадров : 31,250 кадров/сек (1536 spf)
Битовая глубина : 16 бит
Метод сжатия : С потерями
Задержка видео : -200 мс.
Размер потока : 466 Мбайт (1%)
Заголовок : Профессиональный двухголосый (Гланц и Королёва)
Язык : Russian
Default : Нет
Forced : Нет
Аудио #4
Идентификатор : 5
Формат : AC-3
Формат/Информация : Audio Coding 3
Расширение режима : CM (complete main)
Параметр Endianness формата : Big
Идентификатор кодека : A_AC3
Продолжительность : 2 ч. 25 м.
Вид битрейта : Постоянный
Битрейт : 448 Кбит/сек
Каналы : 6 каналов
Расположение каналов : Front: L C R, Side: L R, LFE
Частота : 48,0 КГц
Частота кадров : 31,250 кадров/сек (1536 spf)
Битовая глубина : 16 бит
Метод сжатия : С потерями
Задержка видео : -200 мс.
Размер потока : 466 Мбайт (1%)
Заголовок : AVO Горчаков
Язык : Russian
Default : Нет
Forced : Нет
Аудио #5
Идентификатор : 6
Формат : AC-3
Формат/Информация : Audio Coding 3
Расширение режима : CM (complete main)
Параметр Endianness формата : Big
Идентификатор кодека : A_AC3
Продолжительность : 2 ч. 25 м.
Вид битрейта : Постоянный
Битрейт : 448 Кбит/сек
Каналы : 6 каналов
Расположение каналов : Front: L C R, Side: L R, LFE
Частота : 48,0 КГц
Частота кадров : 31,250 кадров/сек (1536 spf)
Битовая глубина : 16 бит
Метод сжатия : С потерями
Задержка видео : -200 мс.
Размер потока : 466 Мбайт (1%)
Заголовок : AVO Чадов
Язык : Russian
Default : Нет
Forced : Нет
Аудио #6
Идентификатор : 7
Формат : AC-3
Формат/Информация : Audio Coding 3
Расширение режима : CM (complete main)
Параметр Endianness формата : Big
Идентификатор кодека : A_AC3
Продолжительность : 2 ч. 25 м.
Вид битрейта : Постоянный
Битрейт : 448 Кбит/сек
Каналы : 6 каналов
Расположение каналов : Front: L C R, Side: L R, LFE
Частота : 48,0 КГц
Частота кадров : 31,250 кадров/сек (1536 spf)
Битовая глубина : 16 бит
Метод сжатия : С потерями
Задержка видео : -200 мс.
Размер потока : 466 Мбайт (1%)
Заголовок : AVO Гаврилов
Язык : Russian
Default : Нет
Forced : Нет
Аудио #7
Идентификатор : 8
Формат : AC-3
Формат/Информация : Audio Coding 3
Расширение режима : CM (complete main)
Параметр Endianness формата : Big
Идентификатор кодека : A_AC3
Продолжительность : 2 ч. 25 м.
Вид битрейта : Постоянный
Битрейт : 192 Кбит/сек
Каналы : 2 канала
Расположение каналов : Front: L R
Частота : 48,0 КГц
Частота кадров : 31,250 кадров/сек (1536 spf)
Битовая глубина : 16 бит
Метод сжатия : С потерями
Задержка видео : -200 мс.
Размер потока : 200 Мбайт (0%)
Заголовок : AVO Михалёв
Язык : Russian
Default : Нет
Forced : Нет
Аудио #8
Идентификатор : 9
Формат : AC-3
Формат/Информация : Audio Coding 3
Расширение режима : CM (complete main)
Параметр Endianness формата : Big
Идентификатор кодека : A_AC3
Продолжительность : 2 ч. 25 м.
Вид битрейта : Постоянный
Битрейт : 448 Кбит/сек
Каналы : 6 каналов
Расположение каналов : Front: L C R, Side: L R, LFE
Частота : 48,0 КГц
Частота кадров : 31,250 кадров/сек (1536 spf)
Битовая глубина : 16 бит
Метод сжатия : С потерями
Задержка видео : -200 мс.
Размер потока : 466 Мбайт (1%)
Заголовок : AVO Прямостанов
Язык : Russian
Default : Нет
Forced : Нет
Аудио #9
Идентификатор : 10
Формат : AC-3
Формат/Информация : Audio Coding 3
Расширение режима : CM (complete main)
Параметр Endianness формата : Big
Идентификатор кодека : A_AC3
Продолжительность : 2 ч. 25 м.
Вид битрейта : Постоянный
Битрейт : 448 Кбит/сек
Каналы : 6 каналов
Расположение каналов : Front: L C R, Side: L R, LFE
Частота : 48,0 КГц
Частота кадров : 31,250 кадров/сек (1536 spf)
Битовая глубина : 16 бит
Метод сжатия : С потерями
Задержка видео : -200 мс.
Размер потока : 466 Мбайт (1%)
Заголовок : AVO Живов
Язык : Russian
Default : Нет
Forced : Нет
Аудио #10
Идентификатор : 11
Формат : AC-3
Формат/Информация : Audio Coding 3
Расширение режима : CM (complete main)
Параметр Endianness формата : Big
Идентификатор кодека : A_AC3
Продолжительность : 2 ч. 25 м.
Вид битрейта : Постоянный
Битрейт : 448 Кбит/сек
Каналы : 6 каналов
Расположение каналов : Front: L C R, Side: L R, LFE
Частота : 48,0 КГц
Частота кадров : 31,250 кадров/сек (1536 spf)
Битовая глубина : 16 бит
Метод сжатия : С потерями
Задержка видео : -200 мс.
Размер потока : 466 Мбайт (1%)
Заголовок : Оригинал
Язык : English
Default : Нет
Forced : Нет
Текст #1
Идентификатор : 12
Формат : UTF-8
Идентификатор кодека : S_TEXT/UTF8
Идентификатор кодека/Информация : UTF-8 Plain Text
Продолжительность : 2 ч. 20 м.
Битрейт : 134 бит/сек
Count of elements : 1977
Размер потока : 138 Кбайт (0%)
Заголовок : Нормативные
Язык : Russian
Default : Да
Forced : Нет
Текст #2
Идентификатор : 13
Формат : UTF-8
Идентификатор кодека : S_TEXT/UTF8
Идентификатор кодека/Информация : UTF-8 Plain Text
Продолжительность : 2 ч. 20 м.
Битрейт : 134 бит/сек
Count of elements : 1977
Размер потока : 138 Кбайт (0%)
Заголовок : Ненормативные
Язык : Russian
Default : Нет
Forced : Нет
Текст #3
Идентификатор : 14
Формат : UTF-8
Идентификатор кодека : S_TEXT/UTF8
Идентификатор кодека/Информация : UTF-8 Plain Text
Продолжительность : 2 ч. 24 м.
Битрейт : 81 бит/сек
Count of elements : 2052
Размер потока : 86,1 Кбайт (0%)
Заголовок : Полные
Default : Нет
Forced : Нет
Текст #4
Идентификатор : 15
Формат : UTF-8
Идентификатор кодека : S_TEXT/UTF8
Идентификатор кодека/Информация : UTF-8 Plain Text
Продолжительность : 2 ч. 24 м.
Битрейт : 85 бит/сек
Count of elements : 2192
Размер потока : 90,6 Кбайт (0%)
Заголовок : SDH
Default : Нет
Forced : Нет

Внимание!

В русских субтитрах присутствует ненормативная лексика.

Скриншоты



Показать сообщения:    

Текущее время: 18-Авг 21:17

Часовой пояс: UTC + 3


Вы не можете начинать темы
Вы не можете отвечать на сообщения
Вы не можете редактировать свои сообщения
Вы не можете удалять свои сообщения
Вы не можете голосовать в опросах
Вы не можете прикреплять файлы к сообщениям
Вы не можете скачивать файлы

!ВНИМАНИЕ!
Сайт не предоставляет электронные версии произведений, а занимается лишь коллекционированием и каталогизацией ссылок, присылаемых и публикуемых на форуме нашими читателями. Если вы являетесь правообладателем какого-либо представленного материала и не желаете, чтобы ссылка на него находилась в нашем каталоге, свяжитесь с нами, и мы незамедлительно удалим ее. Файлы для обмена на трекере предоставлены пользователями сайта, и администрация не несет ответственности за их содержание. Просьба не заливать файлы, защищенные авторскими правами, а также файлы нелегального содержания!