[Цитировать]

-Bananarama - Collection (4CD)--
Год издания: 1984 - 1991
Страна: UK
Жанр: Euro-Disco, Pop
Продолжительность: 02:55:17-Лейбл издания: London Records, Metronome
Страна-выпуска диска: EU -Формат: FLAC
Битрейт аудио: Lossless
Тип рипа: image +.cue
Наличие сканов в содержимом раздачи: да
-

Трэклист

CD 1 - 1984 - Bananarama | 00:34:12


01. Cruel Summer (3:34)
02. Rough Justice (5:06)
03. King of the Jungle (3:18)
04. Dream Baby (3:09)
05. Link (1:32)
06. Hot Line To Heaven (7:19)
07. State I'm In (2:48)
08. Robert De Niro's Waiting (3:45)
09. Through A Child's Eye (3:41)

CD 2 - 1986 - Deep Sea Skiving | 00:37:57


01. Shy Boy (3:14)
02. Doctor Love (3:42)
03. What A Shambles (3:35)
04. Really Saying Something (2:43)
05. Cheers Then (3:31)
06. Aie A Mwana (3:34)
07. Young At Heart (3:12)
08. Na Na Hey Hey Kiss Him Goodbye (3:30)
09. Hey Young London (3:56)
10. Boy Trouble (3:13)
11. Wish You Were Here (3:46)

CD 3 - 1986 - True Confessions | 00:48:07


01. True Confessions (5:20)
02. Ready Or Not (3:55)
03. A Trick Of The Night (4:41)
04. Dance With A Stranger (4:32)
05. In A Perfect World (6:07)
06. Venus (3:50)
07. Do Not Disturb (3:25)
08. A Cut Above The Rest (3:41)
09. Promised Land (3:45)
10. More Than Physical (5:05)
11. Hooked On Love (3:47)

CD 4 - 1991 - Pop Life | 00:55:01


01. Preacher Man (3:16)
02. Long Train Running (3:30)
03. Only Your Love (4:00)
04. What Colour R the Skies Where U Live (4:27)
05. Is Your Love Strong Enough (5:08)
06. Tripping on Your Love (3:19)
07. Ain't No Cure (3:26)
08. Outta Sight (4:32)
09. Megalomaniac (6:23)
10. I Can't Let You Go (6:08)
11. Heartless (3:21)
12. Preacher Man (Ramabanana Alternative Mix) (7:31)
-

Лог создания рипа

CD 1

Exact Audio Copy V0.99 prebeta 4 from 23. January 2008
EAC extraction logfile from 11. August 2008, 17:51
Bananarama / Bananarama
Used drive  : TSSTcorpCDDVDW SH-S203B   Adapter: 6  ID: 0
Read mode               : Secure
Utilize accurate stream : Yes
Defeat audio cache      : Yes
Make use of C2 pointers : No
Read offset correction                      : 6
Overread into Lead-In and Lead-Out          : No
Fill up missing offset samples with silence : Yes
Delete leading and trailing silent blocks   : No
Null samples used in CRC calculations       : Yes
Used interface                              : Installed external ASPI interface
Used output format              : User Defined Encoder
Selected bitrate                : 1024 kBit/s
Quality                         : High
Add ID3 tag                     : No
Command line compressor         : C:\Program Files\FLAC\flac.exe
Additional command line options :  -8 -V -T "ARTIST=%a" -T "TITLE=%t" -T "ALBUM=%g" -T "DATE=%y" -T "TRACKNUMBER=%n" -T "GENRE=%m" -T "COMMENT=%e" %s -o %d
TOC of the extracted CD
     Track |   Start  |  Length  | Start sector | End sector
    ---------------------------------------------------------
        1  |  0:00.32 |  3:33.38 |        32    |    16044
        2  |  3:33.70 |  5:06.37 |     16045    |    39031
        3  |  8:40.32 |  3:18.13 |     39032    |    53894
        4  | 11:58.45 |  3:09.05 |     53895    |    68074
        5  | 15:07.50 |  1:31.50 |     68075    |    74949
        6  | 16:39.25 |  7:19.00 |     74950    |   107874
        7  | 23:58.25 |  2:48.25 |    107875    |   120499
        8  | 26:46.50 |  3:44.40 |    120500    |   137339
        9  | 30:31.15 |  3:40.72 |    137340    |   153911
Range status and errors
Selected range
     Filename C:\uTorrent\CD\Bananarama - Bananarama\Bananarama - Bananarama.wav
     Peak level 89.4 %
     Range quality 99.9 %
     Copy CRC 8A563FEC
     Copy OK
No errors occurred
AccurateRip summary
Track  1  accurately ripped (confidence 12)  [BBD388A5]
Track  2  accurately ripped (confidence 12)  [93B82C9A]
Track  3  accurately ripped (confidence 12)  [E55985D3]
Track  4  accurately ripped (confidence 12)  [E1F3D082]
Track  5  accurately ripped (confidence 12)  [671CED07]
Track  6  accurately ripped (confidence 12)  [201535C6]
Track  7  accurately ripped (confidence 11)  [408853A0]
Track  8  accurately ripped (confidence 11)  [2D83B30F]
Track  9  accurately ripped (confidence 10)  [92ADDD86]
All tracks accurately ripped
End of status report

CD 2

Exact Audio Copy V0.99 prebeta 4 from 23. January 2008
EAC extraction logfile from 11. August 2008, 18:03
Bananarama / Deep Sea Skiving
Used drive  : TSSTcorpCDDVDW SH-S203B   Adapter: 6  ID: 0
Read mode               : Secure
Utilize accurate stream : Yes
Defeat audio cache      : Yes
Make use of C2 pointers : No
Read offset correction                      : 6
Overread into Lead-In and Lead-Out          : No
Fill up missing offset samples with silence : Yes
Delete leading and trailing silent blocks   : No
Null samples used in CRC calculations       : Yes
Used interface                              : Installed external ASPI interface
Used output format              : User Defined Encoder
Selected bitrate                : 1024 kBit/s
Quality                         : High
Add ID3 tag                     : No
Command line compressor         : C:\Program Files\FLAC\flac.exe
Additional command line options :  -8 -V -T "ARTIST=%a" -T "TITLE=%t" -T "ALBUM=%g" -T "DATE=%y" -T "TRACKNUMBER=%n" -T "GENRE=%m" -T "COMMENT=%e" %s -o %d
TOC of the extracted CD
     Track |   Start  |  Length  | Start sector | End sector
    ---------------------------------------------------------
        1  |  0:00.33 |  3:14.07 |        33    |    14589
        2  |  3:14.40 |  3:41.73 |     14590    |    31237
        3  |  6:56.38 |  3:34.45 |     31238    |    47332
        4  | 10:31.08 |  2:43.22 |     47333    |    59579
        5  | 13:14.30 |  3:31.23 |     59580    |    75427
        6  | 16:45.53 |  3:34.35 |     75428    |    91512
        7  | 20:20.13 |  3:12.10 |     91513    |   105922
        8  | 23:32.23 |  3:30.07 |    105923    |   121679
        9  | 27:02.30 |  3:55.63 |    121680    |   139367
       10  | 30:58.18 |  3:13.10 |    139368    |   153852
       11  | 34:11.28 |  3:46.10 |    153853    |   170812
Range status and errors
Selected range
     Filename C:\uTorrent\CD\Bananarama - Deep Sea Skiving\Bananarama - Deep Sea Skiving.wav
     Peak level 100.0 %
     Range quality 100.0 %
     Copy CRC 01412936
     Copy OK
No errors occurred
AccurateRip summary
Track  1  accurately ripped (confidence 3)  [921B0B87]
Track  2  accurately ripped (confidence 3)  [48F49C73]
Track  3  accurately ripped (confidence 3)  [7D959C9A]
Track  4  accurately ripped (confidence 3)  [139C457D]
Track  5  accurately ripped (confidence 3)  [BAF67DB3]
Track  6  accurately ripped (confidence 3)  [1A1294F4]
Track  7  accurately ripped (confidence 3)  [C70E0FD2]
Track  8  accurately ripped (confidence 3)  [26EEA806]
Track  9  accurately ripped (confidence 3)  [E127DE10]
Track 10  accurately ripped (confidence 3)  [3980325C]
Track 11  accurately ripped (confidence 3)  [3ED94665]
All tracks accurately ripped
End of status report

CD 3

Exact Audio Copy V0.99 prebeta 4 from 23. January 2008
EAC extraction logfile from 11. August 2008, 18:23
Bananarama / Pop Life
Used drive  : TSSTcorpCDDVDW SH-S203B   Adapter: 6  ID: 0
Read mode               : Secure
Utilize accurate stream : Yes
Defeat audio cache      : Yes
Make use of C2 pointers : No
Read offset correction                      : 6
Overread into Lead-In and Lead-Out          : No
Fill up missing offset samples with silence : Yes
Delete leading and trailing silent blocks   : No
Null samples used in CRC calculations       : Yes
Used interface                              : Installed external ASPI interface
Used output format              : User Defined Encoder
Selected bitrate                : 1024 kBit/s
Quality                         : High
Add ID3 tag                     : No
Command line compressor         : C:\Program Files\FLAC\flac.exe
Additional command line options :  -8 -V -T "ARTIST=%a" -T "TITLE=%t" -T "ALBUM=%g" -T "DATE=%y" -T "TRACKNUMBER=%n" -T "GENRE=%m" -T "COMMENT=%e" %s -o %d
TOC of the extracted CD
     Track |   Start  |  Length  | Start sector | End sector
    ---------------------------------------------------------
        1  |  0:00.32 |  3:15.65 |        32    |    14721
        2  |  3:16.22 |  3:30.03 |     14722    |    30474
        3  |  6:46.25 |  3:59.55 |     30475    |    48454
        4  | 10:46.05 |  4:27.30 |     48455    |    68509
        5  | 15:13.35 |  5:07.45 |     68510    |    91579
        6  | 20:21.05 |  3:19.15 |     91580    |   106519
        7  | 23:40.20 |  3:26.12 |    106520    |   121981
        8  | 27:06.32 |  4:31.68 |    121982    |   142374
        9  | 31:38.25 |  6:23.07 |    142375    |   171106
       10  | 38:01.32 |  6:08.33 |    171107    |   198739
       11  | 44:09.65 |  3:20.57 |    198740    |   213796
       12  | 47:30.47 |  7:31.05 |    213797    |   247626
Range status and errors
Selected range
     Filename C:\uTorrent\CD\Bananarama - Pop Life\Bananarama - Pop Life.wav
     Peak level 100.0 %
     Range quality 99.9 %
     Copy CRC 40802FB5
     Copy OK
No errors occurred
AccurateRip summary
Track  1  accurately ripped (confidence 4)  [48F56E8D]
Track  2  accurately ripped (confidence 4)  [6AEBA531]
Track  3  accurately ripped (confidence 2)  [C47AC579]
Track  4  accurately ripped (confidence 2)  [522F9266]
Track  5  accurately ripped (confidence 2)  [E24909BC]
Track  6  accurately ripped (confidence 2)  [255C80AE]
Track  7  accurately ripped (confidence 2)  [E319B89C]
Track  8  accurately ripped (confidence 2)  [36284308]
Track  9  accurately ripped (confidence 2)  [3DB605B9]
Track 10  not present in database
Track 11  accurately ripped (confidence 2)  [62F58196]
Track 12  accurately ripped (confidence 2)  [422A88DA]
11 track(s) accurately ripped
1 track(s) not present in the AccurateRip database
Some tracks could not be verified as accurate
End of status report

CD 4

Exact Audio Copy V0.99 prebeta 4 from 23. January 2008
EAC extraction logfile from 6. August 2008, 20:57
Bananarama / True Confessions
Used drive  : TSSTcorpCDDVDW SH-S203B   Adapter: 6  ID: 0
Read mode               : Secure
Utilize accurate stream : Yes
Defeat audio cache      : Yes
Make use of C2 pointers : No
Read offset correction                      : 6
Overread into Lead-In and Lead-Out          : No
Fill up missing offset samples with silence : Yes
Delete leading and trailing silent blocks   : No
Null samples used in CRC calculations       : Yes
Used interface                              : Installed external ASPI interface
Used output format              : User Defined Encoder
Selected bitrate                : 1024 kBit/s
Quality                         : High
Add ID3 tag                     : No
Command line compressor         : C:\Program Files\FLAC\flac.exe
Additional command line options :  -8 -V -T "ARTIST=%a" -T "TITLE=%t" -T "ALBUM=%g" -T "DATE=%y" -T "TRACKNUMBER=%n" -T "GENRE=%m" -T "COMMENT=%e" %s -o %d
TOC of the extracted CD
     Track |   Start  |  Length  | Start sector | End sector
    ---------------------------------------------------------
        1  |  0:00.33 |  5:20.15 |        33    |    24047
        2  |  5:20.48 |  3:54.45 |     24048    |    41642
        3  |  9:15.18 |  4:41.22 |     41643    |    62739
        4  | 13:56.40 |  4:31.73 |     62740    |    83137
        5  | 18:28.38 |  6:06.40 |     83138    |   110627
        6  | 24:35.03 |  3:50.17 |    110628    |   127894
        7  | 28:25.20 |  3:25.08 |    127895    |   143277
        8  | 31:50.28 |  3:40.47 |    143278    |   159824
        9  | 35:31.00 |  3:44.53 |    159825    |   176677
       10  | 39:15.53 |  5:04.67 |    176678    |   199544
       11  | 44:20.45 |  3:46.58 |    199545    |   216552
Range status and errors
Selected range
     Filename C:\uTorrent\CD\Bananarama - True Confessions\Bananarama - True Confessions.wav
     Peak level 91.2 %
     Range quality 100.0 %
     Copy CRC 3AF5A46D
     Copy OK
No errors occurred
AccurateRip summary
Track  1  accurately ripped (confidence 9)  [C73D5D7E]
Track  2  accurately ripped (confidence 10)  [4762F3D1]
Track  3  accurately ripped (confidence 8)  [7854DF81]
Track  4  accurately ripped (confidence 9)  [A9183E9F]
Track  5  accurately ripped (confidence 9)  [3D19F071]
Track  6  accurately ripped (confidence 10)  [1B0F63E3]
Track  7  accurately ripped (confidence 9)  [2E82F976]
Track  8  accurately ripped (confidence 9)  [D5B1815A]
Track  9  accurately ripped (confidence 10)  [691710C2]
Track 10  accurately ripped (confidence 9)  [63425A6E]
Track 11  accurately ripped (confidence 9)  [A7F424E5]
All tracks accurately ripped
End of status report

Индексная карта (non-compilant .cue)

CD 1

REM GENRE Pop
REM DATE 1984
REM DISCID 57080409
REM COMMENT "ExactAudioCopy v0.99pb4"
CATALOG 0042282003621
PERFORMER "Bananarama"
TITLE "Bananarama"
FILE "Bananarama - Bananarama.flac" WAVE
  TRACK 01 AUDIO
    TITLE "Cruel Summer"
    PERFORMER "Bananarama"
    ISRC [email protected]
    INDEX 00 00:00:00
    INDEX 01 00:00:32
  TRACK 02 AUDIO
    TITLE "Rough Justice"
    PERFORMER "Bananarama"
    ISRC [email protected]
    INDEX 01 03:33:70
  TRACK 03 AUDIO
    TITLE "King of the Jungle"
    PERFORMER "Bananarama"
    ISRC [email protected]
    INDEX 00 08:38:18
    INDEX 01 08:40:32
  TRACK 04 AUDIO
    TITLE "Dream Baby"
    PERFORMER "Bananarama"
    ISRC [email protected]
    INDEX 01 11:58:45
  TRACK 05 AUDIO
    TITLE "Link"
    PERFORMER "Bananarama"
    ISRC [email protected]
    INDEX 01 15:07:50
  TRACK 06 AUDIO
    TITLE "Hot Line To Heaven"
    PERFORMER "Bananarama"
    ISRC [email protected]
    INDEX 00 16:37:58
    INDEX 01 16:39:25
  TRACK 07 AUDIO
    TITLE "State I'm In"
    PERFORMER "Bananarama"
    ISRC [email protected]
    INDEX 00 23:55:73
    INDEX 01 23:58:25
  TRACK 08 AUDIO
    TITLE "Robert De Niro's Waiting"
    PERFORMER "Bananarama"
    ISRC [email protected]
    INDEX 00 26:43:15
    INDEX 01 26:46:50
  TRACK 09 AUDIO
    TITLE "Through A Child's Eye"
    PERFORMER "Bananarama"
    ISRC [email protected]
    INDEX 00 30:29:15
    INDEX 01 30:31:15

CD 2

REM GENRE Pop
REM DATE 1986
REM DISCID 8008E50B
REM COMMENT "ExactAudioCopy v0.99pb4"
CATALOG 0042281010729
PERFORMER "Bananarama"
TITLE "Deep Sea Skiving"
FILE "Bananarama - Deep Sea Skiving.flac" WAVE
  TRACK 01 AUDIO
    TITLE "Shy Boy"
    PERFORMER "Bananarama"
    INDEX 00 00:00:00
    INDEX 01 00:00:33
  TRACK 02 AUDIO
    TITLE "Doctor Love"
    PERFORMER "Bananarama"
    INDEX 01 03:14:40
  TRACK 03 AUDIO
    TITLE "What A Shambles"
    PERFORMER "Bananarama"
    INDEX 00 06:55:50
    INDEX 01 06:56:38
  TRACK 04 AUDIO
    TITLE "Really Saying Something"
    PERFORMER "Bananarama"
    INDEX 01 10:31:08
  TRACK 05 AUDIO
    TITLE "Cheers Then"
    PERFORMER "Bananarama"
    INDEX 00 13:13:45
    INDEX 01 13:14:30
  TRACK 06 AUDIO
    TITLE "Aie A Mwana"
    PERFORMER "Bananarama"
    INDEX 00 16:45:05
    INDEX 01 16:45:53
  TRACK 07 AUDIO
    TITLE "Young At Heart"
    PERFORMER "Bananarama"
    INDEX 00 20:19:53
    INDEX 01 20:20:13
  TRACK 08 AUDIO
    TITLE "Na Na Hey Hey Kiss Him Goodbye"
    PERFORMER "Bananarama"
    INDEX 00 23:31:35
    INDEX 01 23:32:23
  TRACK 09 AUDIO
    TITLE "Hey Young London"
    PERFORMER "Bananarama"
    INDEX 00 27:01:30
    INDEX 01 27:02:30
  TRACK 10 AUDIO
    TITLE "Boy Trouble"
    PERFORMER "Bananarama"
    INDEX 00 30:57:60
    INDEX 01 30:58:18
  TRACK 11 AUDIO
    TITLE "Wish You Were Here"
    PERFORMER "Bananarama"
    INDEX 00 34:09:43
    INDEX 01 34:11:28

CD 3

REM GENRE Dance
REM DATE 1991
REM DISCID 9B0CE50C
REM COMMENT "ExactAudioCopy v0.99pb4"
CATALOG 0000000000000
PERFORMER "Bananarama"
TITLE "Pop Life"
FILE "Bananarama - Pop Life.flac" WAVE
  TRACK 01 AUDIO
    TITLE "Preacher Man"
    PERFORMER "Bananarama"
    INDEX 00 00:00:00
    INDEX 01 00:00:32
  TRACK 02 AUDIO
    TITLE "Long Train Running"
    PERFORMER "Bananarama"
    INDEX 00 03:14:35
    INDEX 01 03:16:22
  TRACK 03 AUDIO
    TITLE "Only Your Love"
    PERFORMER "Bananarama"
    INDEX 01 06:46:25
  TRACK 04 AUDIO
    TITLE "What Colour R the Skies Where U Live"
    PERFORMER "Bananarama"
    INDEX 00 10:44:25
    INDEX 01 10:46:05
  TRACK 05 AUDIO
    TITLE "Is Your Love Strong Enough"
    PERFORMER "Bananarama"
    INDEX 00 15:12:20
    INDEX 01 15:13:35
  TRACK 06 AUDIO
    TITLE "Tripping on Your Love"
    PERFORMER "Bananarama"
    INDEX 00 20:19:67
    INDEX 01 20:21:05
  TRACK 07 AUDIO
    TITLE "Ain't No Cure"
    PERFORMER "Bananarama"
    INDEX 01 23:40:20
  TRACK 08 AUDIO
    TITLE "Outta Sight"
    PERFORMER "Bananarama"
    INDEX 01 27:06:32
  TRACK 09 AUDIO
    TITLE "Megalomaniac"
    PERFORMER "Bananarama"
    INDEX 00 31:36:62
    INDEX 01 31:38:25
  TRACK 10 AUDIO
    TITLE "I Can't Let You Go"
    PERFORMER "Bananarama"
    INDEX 00 38:00:32
    INDEX 01 38:01:32
  TRACK 11 AUDIO
    TITLE "Heartless"
    PERFORMER "Bananarama"
    INDEX 00 44:09:07
    INDEX 01 44:09:65
  TRACK 12 AUDIO
    TITLE "Preacher Man (Ramabanana Alternative Mix)"
    PERFORMER "Bananarama"
    INDEX 00 47:30:30
    INDEX 01 47:30:47

CD 4

REM GENRE Pop
REM DATE 1986
REM DISCID 890B470B
REM COMMENT "ExactAudioCopy v0.99pb4"
CATALOG 0042282801326
PERFORMER "Bananarama"
TITLE "True Confessions"
FILE "Bananarama - True Confessions.flac" WAVE
  TRACK 01 AUDIO
    TITLE "True Confessions"
    PERFORMER "Bananarama"
    INDEX 00 00:00:00
    INDEX 01 00:00:33
  TRACK 02 AUDIO
    TITLE "Ready Or Not"
    PERFORMER "Bananarama"
    INDEX 00 05:18:48
    INDEX 01 05:20:48
  TRACK 03 AUDIO
    TITLE "A Trick Of The Night"
    PERFORMER "Bananarama"
    INDEX 00 09:13:18
    INDEX 01 09:15:18
  TRACK 04 AUDIO
    TITLE "Dance With A Stranger"
    PERFORMER "Bananarama"
    INDEX 00 13:54:40
    INDEX 01 13:56:40
  TRACK 05 AUDIO
    TITLE "In A Perfect World"
    PERFORMER "Bananarama"
    INDEX 00 18:27:38
    INDEX 01 18:28:38
  TRACK 06 AUDIO
    TITLE "Venus"
    PERFORMER "Bananarama"
    INDEX 00 24:32:03
    INDEX 01 24:35:03
  TRACK 07 AUDIO
    TITLE "Do Not Disturb"
    PERFORMER "Bananarama"
    INDEX 00 28:24:20
    INDEX 01 28:25:20
  TRACK 08 AUDIO
    TITLE "A Cut Above The Rest"
    PERFORMER "Bananarama"
    INDEX 00 31:49:28
    INDEX 01 31:50:28
  TRACK 09 AUDIO
    TITLE "Promised Land"
    PERFORMER "Bananarama"
    INDEX 00 35:30:00
    INDEX 01 35:31:00
  TRACK 10 AUDIO
    TITLE "More Than Physical"
    PERFORMER "Bananarama"
    INDEX 00 39:14:53
    INDEX 01 39:15:53
  TRACK 11 AUDIO
    TITLE "Hooked On Love"
    PERFORMER "Bananarama"
    INDEX 00 44:19:45
    INDEX 01 44:20:45
--


Показать сообщения:    

Текущее время: 20-Июн 18:15

Часовой пояс: UTC + 3


Вы не можете начинать темы
Вы не можете отвечать на сообщения
Вы не можете редактировать свои сообщения
Вы не можете удалять свои сообщения
Вы не можете голосовать в опросах
Вы не можете прикреплять файлы к сообщениям
Вы не можете скачивать файлы

!ВНИМАНИЕ!
Сайт не предоставляет электронные версии произведений, а занимается лишь коллекционированием и каталогизацией ссылок, присылаемых и публикуемых на форуме нашими читателями. Если вы являетесь правообладателем какого-либо представленного материала и не желаете, чтобы ссылка на него находилась в нашем каталоге, свяжитесь с нами, и мы незамедлительно удалим ее. Файлы для обмена на трекере предоставлены пользователями сайта, и администрация не несет ответственности за их содержание. Просьба не заливать файлы, защищенные авторскими правами, а также файлы нелегального содержания!