[Цитировать]

- группа Перерыв - Гром (1996) - Год: 1996
Жанр: Шансон
Издание: Союз SZCD 0536-96
Источник (релизер): eloychik ®
Продолжительность: 00:48:01
Кодек: FLAC
Битрейт: Lossless
Тип рипа: image + .cue

01. Гром
02. Пожелай мне...
03. Соната
04. Времена года
05. Флейта
06. Серые дороги
07. Дом на берегу реки
08. Вниз по реке
09. Ты жил так беспечно
10. Артист

Отчёт ЕАС:

Exact Audio Copy V1.3 from 2. September 2016
Отчёт EAC об извлечении, выполненном 12. января 2018, 22:25
гр.Перерыв / Гром
Дисковод: ASUS    DRW-24D5MT   Adapter: 1  ID: 0
Режим чтения                 : Достоверность
Использование точного потока : Да
Отключение кэша аудио        : Да
Использование указателей C2  : Нет
Коррекция смещения при чтении                     : 6
Способность читать области Lead-in и Lead-out     : Нет
Заполнение пропущенных сэмплов тишиной            : Да
Удаление блоков с тишиной в начале и конце        : Нет
При вычислениях CRC использовались нулевые сэмплы : Да
Интерфейс                                         : Встроенный Win32-интерфейс для Win NT/2000
Выходной формат          : Пользовательский кодировщик
Выбранный битрейт        : 128 kBit/s
Качество                 : Высокий
Добавление ID3-тега      : Нет
Утилита сжатия           : C:\Program Files (x86)\Exact Audio Copy\Flac\flac.exe
Дополнительные параметры : -V -8 -T "Date=%year%" -T "Genre=%genre%" %source%
TOC извлечённого CD
     Трек |   Старт  | Длительность | Начальный сектор | Конечный сектор
    ---------------------------------------------------------------------
       1  |  0:00.10 |    3:46.67   |          10      |      17026
       2  |  3:47.02 |    4:34.73   |       17027      |      37649
       3  |  8:22.00 |    5:49.05   |       37650      |      63829
       4  | 14:11.05 |    5:23.15   |       63830      |      88069
       5  | 19:34.20 |    5:46.60   |       88070      |     114079
       6  | 25:21.05 |    5:19.20   |      114080      |     138024
       7  | 30:40.25 |    4:06.12   |      138025      |     156486
       8  | 34:46.37 |    3:47.30   |      156487      |     173541
       9  | 38:33.67 |    5:08.73   |      173542      |     196714
      10  | 43:42.65 |    4:17.40   |      196715      |     216029
Характеристики диапазона извлечения и сообщения об ошибках
Выбранный диапазон
     Имя файла E:\Раздачи\TORRNADA-eloychik ®\гр.Перерыв - Гром [torrnada.NAME]\гр.Перерыв - Гром.wav
     Пиковый уровень 98.8 %
     Скорость извлечения 1.7 X
     Качество диапазона 100.0 %
     CRC теста 0CAE70E7
     CRC копии 0CAE70E7
     Копирование... OK
Ошибок не произошло
AccurateRip: сводка
Трек  1  : извлечено точно (доверие 1)  [73817B02]  (AR v2)
Трек  2  : извлечено точно (доверие 1)  [8B6562B3]  (AR v2)
Трек  3  : извлечено точно (доверие 1)  [35CAB866]  (AR v2)
Трек  4  : извлечено точно (доверие 1)  [E446AC54]  (AR v2)
Трек  5  : извлечено точно (доверие 1)  [D110F564]  (AR v2)
Трек  6  : извлечено точно (доверие 1)  [16FF62C0]  (AR v2)
Трек  7  : извлечено точно (доверие 1)  [0DDED834]  (AR v2)
Трек  8  : извлечено точно (доверие 1)  [D6D5396C]  (AR v2)
Трек  9  : извлечено точно (доверие 1)  [D0AD439F]  (AR v2)
Трек 10  : извлечено точно (доверие 1)  [018A0A3D]  (AR v2)
Все треки извлечены точно
Конец отчёта
==== Контрольная сумма отчёта D3CC964B716597013F1897E3B97F846845707F122D14254D468230A58F93CF67 ====

Cue Sheet (.cue):

REM GENRE Chanson
REM DATE 1996
REM DISCID 7C0B400A
REM COMMENT "ExactAudioCopy v1.3"
PERFORMER "гр.Перерыв"
TITLE "Гром"
REM COMPOSER ""
FILE "гр.Перерыв - Гром.flac" WAVE
  TRACK 01 AUDIO
    TITLE "Гром"
    PERFORMER "гр.Перерыв"
    REM COMPOSER ""
    INDEX 00 00:00:00
    INDEX 01 00:00:10
  TRACK 02 AUDIO
    TITLE "Пожелай мне..."
    PERFORMER "гр.Перерыв"
    REM COMPOSER ""
    INDEX 00 03:45:35
    INDEX 01 03:47:02
  TRACK 03 AUDIO
    TITLE "Соната"
    PERFORMER "гр.Перерыв"
    REM COMPOSER ""
    INDEX 00 08:20:22
    INDEX 01 08:22:00
  TRACK 04 AUDIO
    TITLE "Времена года"
    PERFORMER "гр.Перерыв"
    REM COMPOSER ""
    INDEX 00 14:09:15
    INDEX 01 14:11:05
  TRACK 05 AUDIO
    TITLE "Флейта"
    PERFORMER "гр.Перерыв"
    REM COMPOSER ""
    INDEX 00 19:32:37
    INDEX 01 19:34:20
  TRACK 06 AUDIO
    TITLE "Серые дороги"
    PERFORMER "гр.Перерыв"
    REM COMPOSER ""
    INDEX 00 25:19:35
    INDEX 01 25:21:05
  TRACK 07 AUDIO
    TITLE "Дом на берегу реки"
    PERFORMER "гр.Перерыв"
    REM COMPOSER ""
    INDEX 00 30:38:52
    INDEX 01 30:40:25
  TRACK 08 AUDIO
    TITLE "Вниз по реке"
    PERFORMER "гр.Перерыв"
    REM COMPOSER ""
    INDEX 00 34:44:57
    INDEX 01 34:46:37
  TRACK 09 AUDIO
    TITLE "Ты жил так беспечно"
    PERFORMER "гр.Перерыв"
    REM COMPOSER ""
    INDEX 00 38:32:15
    INDEX 01 38:33:67
  TRACK 10 AUDIO
    TITLE "Артист"
    PERFORMER "гр.Перерыв"
    REM COMPOSER ""
    INDEX 00 43:41:07
    INDEX 01 43:42:65

Отчёт auCDtect Task manager:

-----------------------
DON'T MODIFY THIS FILE
-----------------------
PERFORMER: auCDtect Task Manager, ver. 1.6.0 RC1 build 1.6.0.1
Copyright (c) 2008-2010 y-soft. All rights reserved
http://y-soft.org
ANALYZER: auCDtect: CD records authenticity detector, version 0.8.2
Copyright (c) 2004 Oleg Berngardt. All rights reserved.
Copyright (c) 2004 Alexander Djourik. All rights reserved.
FILE: гр.Перерыв - Гром.flac
  Size: 318892233 Hash: B577EEB361349547E55B77A20ADD1E69 Accuracy: -m0
  Conclusion: CDDA 100%
  Signature: B61D6DB56F5CE42D13EDD5B33E88D0E87A8AF5E3
[new.torrnado.win].t197432.torrent 
Торрент: Зарегистрирован   [ 2018-01-13 22:00 ] · 95E4CE33BC7935D63AE3C1C13ECD120ED269B29E

Скачать .torrent

Скачать

13 KB

Тут должна быть ссылка на скачивание, если ее нет - значит ваш блокировщик рекламы ее заблокировал, что бы скачивать файлы с нашего сайта отключите блокировщик рекламы! И перезагрузите страницу.
Статус: проверено
Скачан: 25 раз
Размер: 308 MB
Оценка:  5 (Голосов: 3) Ваша оценка: 5
Поблагодарили: 5  Спасибо   (список)
Поделится:

[Цитировать]

спасибо за раздачи и со Старым Новым Годом!http://torrnada.com/viewtopic.php?t=197432#


Показать сообщения:    

Текущее время: 21-Апр 01:31

Часовой пояс: UTC + 3


Вы не можете начинать темы
Вы не можете отвечать на сообщения
Вы не можете редактировать свои сообщения
Вы не можете удалять свои сообщения
Вы не можете голосовать в опросах
Вы не можете прикреплять файлы к сообщениям
Вы можете скачивать файлы

!ВНИМАНИЕ!
Сайт не предоставляет электронные версии произведений, а занимается лишь коллекционированием и каталогизацией ссылок, присылаемых и публикуемых на форуме нашими читателями. Если вы являетесь правообладателем какого-либо представленного материала и не желаете, чтобы ссылка на него находилась в нашем каталоге, свяжитесь с нами, и мы незамедлительно удалим ее. Файлы для обмена на трекере предоставлены пользователями сайта, и администрация не несет ответственности за их содержание. Просьба не заливать файлы, защищенные авторскими правами, а также файлы нелегального содержания!