[Цитировать]

Жена с того света Название: Жена с того света
Год выпуска: 2018
Жанр: мелодрама
Режиссёр: Валерий Ибрагимов
В ролях: Юлия Агафонова, Алиса Гребенщикова, Филипп Бледный, Михаил Химичев, Светлана Павлова, Игорь Петрусенко, Мария Тарасова
Описание: На работе по-крупному подставляют старшего бухгалтера Инну. Её обвиняют в краже огромной суммы. Лишь случайность спасает женщину от тюрьмы – по ошибке все считают Инну погибшей в аварии. «Смерть» показывает Инне истинное положение дел: «любимый» муж Николай изменяет ей. Женщине горько осознавать, что её предали те, кому она так доверяла, что она не может быть рядом со своими детьми: Денисом и Лизой. Ведь если Инна «воскреснет», то сразу сядет в тюрьму. Подруга – Катя подаёт ей идею: воспользоваться своим «умершим» статусом, чтобы отомстить предателям и заодно попробовать вернуть своё доброе имя.
Производство: Кинокомпания "Киевтелефильм"
Продолжительность: ~00:46:00
Субтитры: нетРеклама: Нет.Качество: WEBRip - Files-x
Формат: AVI
Видео кодек: XviD
Аудио кодек: AC3
Видео: 720x400 (1.80:1), 25 fps, XviD build 73 ~1600 kbps avg, 0.223 bit/pixel
Аудио: 48.0 kHz, AC3 Dolby Digital, 2/0 (L,R) ch, ~ 192 kbps

MI

Format : AVI
Format/Info : Audio Video Interleave
File size : 600 MiB
Duration : 46mn 20s
Overall bit rate : 1 811 Kbps
Writing application : VirtualDubMod 1.5.10.3 | www.virtualdub-fr.org || (build 2550/release)
Writing library : VirtualDubMod build 2550/release
Video
ID : 0
Format : MPEG-4 Visual
Format profile : Advanced [email protected]
Format settings, BVOP : 1
Format settings, QPel : No
Format settings, GMC : No warppoints
Format settings, Matrix : Custom
Codec ID : XVID
Codec ID/Hint : XviD
Duration : 46mn 20s
Bit rate : 1 609 Kbps
Width : 720 pixels
Height : 400 pixels
Display aspect ratio : 16:9
Frame rate : 25.000 fps
Color space : YUV
Chroma subsampling : 4:2:0
Bit depth : 8 bits
Scan type : Progressive
Compression mode : Lossy
Bits/(Pixel*Frame) : 0.223
Stream size : 533 MiB (89%)
Writing library : XviD 73
Audio
ID : 1
Format : AC-3
Format/Info : Audio Coding 3
Mode extension : CM (complete main)
Format settings, Endianness : Big
Codec ID : 2000
Duration : 46mn 20s
Bit rate mode : Constant
Bit rate : 192 Kbps
Channel count : 2 channels
Channel positions : Front: L R
Sampling rate : 48.0 KHz
Bit depth : 16 bits
Compression mode : Lossy
Stream size : 63.6 MiB (11%)
Alignment : Split accross interleaves
Interleave, duration : 40 ms (1.00 video frame)
Interleave, preload duration : 500 ms


Показать сообщения:    

Текущее время: 23-Апр 20:13

Часовой пояс: UTC + 3


Вы не можете начинать темы
Вы не можете отвечать на сообщения
Вы не можете редактировать свои сообщения
Вы не можете удалять свои сообщения
Вы не можете голосовать в опросах
Вы не можете прикреплять файлы к сообщениям
Вы не можете скачивать файлы

!ВНИМАНИЕ!
Сайт не предоставляет электронные версии произведений, а занимается лишь коллекционированием и каталогизацией ссылок, присылаемых и публикуемых на форуме нашими читателями. Если вы являетесь правообладателем какого-либо представленного материала и не желаете, чтобы ссылка на него находилась в нашем каталоге, свяжитесь с нами, и мы незамедлительно удалим ее. Файлы для обмена на трекере предоставлены пользователями сайта, и администрация не несет ответственности за их содержание. Просьба не заливать файлы, защищенные авторскими правами, а также файлы нелегального содержания!