[Цитировать]

Контора Название: Контора
Год выпуска: 2006
Жанр: Триллер
Режиссер: Дмитрий Парменов
В ролях: Евгений Пронин, Лаура Пицхелаури (Лаури), Игорь Иванов, Андрей Астраханцев, Юрий Агейкин, Татьяна Аптикеева, Николай Данилов, Вадим Демчог, Сергей Занин, Александр Иванов (II), Макс Лапицкий, Ромуальд Макаренко, Ксения Мишина, Михаил Николаев, Марьяна (Марианна) Семенова, Александр Стекольников, Виктор Тереля, Алексей Чуев, Вадим Яковлев
Описание:Когда-то они были как все обычные люди. Он был участковым инспектором, она – журналистом, писавшим обо всем необычном. Но с тех пор, как они стали агентами сверхсекретной спецслужбы, занимающейся аномальными явлениями, их жизнь перенеслась как будто в другой мир. С обычным миром связь осталась через Курьера, а задания получали от Куратора, перед ним же и отчитывались.Подолгу бывать в Конторе не получалось, чаще приходилось из одной командировки ехать в другую, причем угадать куда ехать – в крупный город или в глухую деревню, наперед было невозможно.Недавно вернулись из небольшого городка, куда были вызваны после обнаружения милицией странного трупа наемного убийцы. Как следовало из осмотра места происшествия, убийца вышел из взорвавшейся и горевшей машины, в которой остался труп жертвы, и свалился, пройдя около километра, когда его горящее тело начало распадаться на части.Разобраться с этими чудесами и остаться в живых было непросто. Впрочем, их задания всегда связаны с риском, большим или очень большим, как это было, например, когда пришлось поселиться в доме, в котором, началась эпидемия самоубийств…Раньше в Конторе было много сотрудников, все ощущали важность и уникальность тех задач, которые стояли перед ними, но после эпохи перемен, когда закончилось финансирование и будущее стало неопределенным, из всех, кто работал, осталось всего четверо. Но финансирование и численность Конторы не может влиять на то неведомое, что порождает аномальные явления, а может определять лишь риск и нагрузку на её агентов, продолжающих делать все, чтобы аномальные явления не мешали нормальной жизни.
Выпущено: Россия
Продолжительность:~00:48:00
Качество: DVDRip
Формат: AVI
Видео кодек: XviD
Аудио кодек: MP3
Видео: 704x432 (1.63:1), 25 fps, XviD build 46 ~1763 kbps avg, 0.23 bit/pixel
Аудио: 48 kHz, MPEG Layer 3, 2 ch, ~128.00 kbps avg

MI

General
Format : AVI
Format/Info : Audio Video Interleave
File size : 622 MiB
Duration : 45mn 43s
Overall bit rate : 1 902 Kbps
Writing library : VirtualDub-MPEG2 build 24600/release
Video
ID : 0
Format : MPEG-4 Visual
Format profile : [email protected]
Format settings, BVOP : No
Format settings, QPel : No
Format settings, GMC : No warppoints
Format settings, Matrix : Default (H.263)
Codec ID : XVID
Codec ID/Hint : XviD
Duration : 45mn 43s
Bit rate : 1 764 Kbps
Width : 704 pixels
Height : 432 pixels
Display aspect ratio : 16:10
Frame rate : 25.000 fps
Color space : YUV
Chroma subsampling : 4:2:0
Bit depth : 8 bits
Scan type : Progressive
Compression mode : Lossy
Bits/(Pixel*Frame) : 0.232
Stream size : 577 MiB (93%)
Writing library : XviD 1.1.2 (UTC 2006-11-01)
Audio
ID : 1
Format : MPEG Audio
Format version : Version 1
Format profile : Layer 3
Mode : Joint stereo
Mode extension : MS Stereo
Codec ID : 55
Codec ID/Hint : MP3
Duration : 45mn 43s
Bit rate mode : Constant
Bit rate : 128 Kbps
Channel(s) : 2 channels
Sampling rate : 48.0 KHz
Compression mode : Lossy
Stream size : 41.9 MiB (7%)
Alignment : Split accross interleaves
Interleave, duration : 40 ms (1.00 video frame)
Interleave, preload duration : 500 ms


Показать сообщения:    

Текущее время: 10-Дек 07:57

Часовой пояс: UTC + 3


Вы не можете начинать темы
Вы не можете отвечать на сообщения
Вы не можете редактировать свои сообщения
Вы не можете удалять свои сообщения
Вы не можете голосовать в опросах
Вы не можете прикреплять файлы к сообщениям
Вы не можете скачивать файлы

!ВНИМАНИЕ!
Сайт не предоставляет электронные версии произведений, а занимается лишь коллекционированием и каталогизацией ссылок, присылаемых и публикуемых на форуме нашими читателями. Если вы являетесь правообладателем какого-либо представленного материала и не желаете, чтобы ссылка на него находилась в нашем каталоге, свяжитесь с нами, и мы незамедлительно удалим ее. Файлы для обмена на трекере предоставлены пользователями сайта, и администрация не несет ответственности за их содержание. Просьба не заливать файлы, защищенные авторскими правами, а также файлы нелегального содержания!