[Цитировать]

Ад каннибалов / Cannibal Holocaust (H.264/1080p) BDRemux [1980] - Производство: Италия, F.D. Cinematografica
Жанр: Ужасы, Приключения
Режиссер: Руджеро Деодато
Актеры: Роберт Керман, Франческа Кьярди, Перри Пирканен, Лука Барбарески, Сальваторе Базиле, Рикардо Фуэнтес, Карл Гэбриел Йорк, Паоло Паолони, Лионелло Пио Ди Савойя, Луиджина Рокки
Знаете ли вы, что...
* Фильм был запрещён в 60 странах мира, что сделало его самым «запрещенным» фильмом в мире.
Описание:
Несколько молодых репортеров отправляются в дебри Амазонки, чтобы снять сенсационный фильм о последних людоедах, оставшихся на Земле.
Попав туда, где не бывал еще ни один европеец, они бесследно исчезают. Что с ними случилось? Какие ужасные секреты хранит амазонская сельва?

Возраст: 18+ (зрителям, достигшим 18 лет.
Запрещено для детей)

Релиз от: Atomsk
Продолжительность: 01:35:53
Качество видео: BDRemux
Перевод: Многоголосый закадровый, авторский
Субтитры: Русские (andugan), английские
Видео: AVC/H.264, 1920х1080, ~32.9 Mbps
Аудио: 01 AC3, 2 ch, 192 Kbps - Русский многоголосый
Аудио: 02 AC3, 2 ch, 192 Kbps - Русский одноголосый (Сергей Визгунов)
Аудио: 03 AC3, 2 ch, 192 Kbps - Русский одноголосый (Андрей Гаврилов)
Аудио: 04 AC3, 2 ch, 192 Kbps - Русский одноголосый (Владимир Штейн)
Аудио: 05 DTS-HD MA, 2 ch, 2112 Kbps - Английский
Аудио: 06 DTS-HD MA, 1 ch, 1064 Kbps - Английский
Аудио: 07 DTS-HD MA, 1 ch, 1106 Kbps - Немецкий
Аудио: 08 AC3, 2 ch, 192 Kbps - Commentary with Ruggero Deodato and Robert Kerman
Аудио: 09 AC3, 2 ch, 192 Kbps - Commentary with Carl Yorke and Francesca Ciardi
Аудио: 10 AC3, 2 ch, 320 kbps - Commentary with Marcus Stiglegger and Kai Naumann (немецкий)
Обзор изданий

Mediainfo:

General
Unique ID : 249971945839951884608770942423792494027 (0xBC0ED8779A43A86F8DF4BB90BD6E25CB)
Complete name : G :\TORRNADA\Cannibal.Holocaust.(XT Video).1980.BDRemux.mkv
Format : Matroska
Format version : Version 4 / Version 2
File size : 25.9 GiB
Duration : 1 h 35 min
Overall bit rate mode : Variable
Overall bit rate : 38.7 Mb/s
Movie name : Cannibal Holocaust (XT Video).1980.BDRemux _Atomsk_
Encoded date : UTC 2018-07-12 15:00:16
Writing application : mkvmerge v8.3.0 ('Over the Horizon') 64bit
Writing library : libebml v1.3.1 + libmatroska v1.4.2
Video
ID : 1
Format : AVC
Format/Info : Advanced Video Codec
Format profile : [email protected]
Format settings : CABAC / 3 Ref Frames
Format settings, CABAC : Yes
Format settings, ReFrames : 3 frames
Codec ID : V_MPEG4/ISO/AVC
Duration : 1 h 35 min
Bit rate mode : Variable
Bit rate : 33.0 Mb/s
Maximum bit rate : 38.0 Mb/s
Width : 1 920 pixels
Height : 1 080 pixels
Display aspect ratio : 16:9
Frame rate mode : Constant
Frame rate : 23.976 (24000/1001) FPS
Standard : NTSC
Color space : YUV
Chroma subsampling : 4:2:0
Bit depth : 8 bits
Scan type : Progressive
Bits/(Pixel*Frame) : 0.664
Stream size : 22.0 GiB (85%)
Title : Cannibal Holocaust (XT Video).1980.BDRemux
Writing library : x264pro - Adobe CS Exporter Plug-in
Encoding settings : cabac=1 / ref=4 / deblock=1:-2:-2 / analyse=0x3:0x133 / me=umh / subme=10 / psy=1 / psy_rd=1.00:0.25 / mixed_ref=1 / me_range=24 / chroma_me=1 / trellis=2 / 8x8dct=1 / cqm=0 / deadzone=6,6 / fast_pskip=1 / chroma_qp_offset=-4 / threads=12 / lookahead_threads=2 / sliced_threads=0 / slices=4 / nr=0 / decimate=0 / interlaced=0 / bluray_compat=1 / constrained_intra=0 / bframes=3 / b_pyramid=1 / b_adapt=2 / b_bias=0 / direct=3 / weightb=1 / open_gop=0 / weightp=1 / keyint=24 / keyint_min=1 / scenecut=40 / intra_refresh=0 / rc_lookahead=24 / rc=abr / mbtree=1 / bitrate=33000 / ratetol=1.0 / qcomp=0.80 / qpmin=0 / qpmax=69 / qpstep=4 / vbv_maxrate=38000 / vbv_bufsize=30000 / nal_hrd=vbr / ip_ratio=1.10 / aq=1:1.00
Language : English
Default : Yes
Forced : No
Color range : Limited
Color primaries : BT.709
Transfer characteristics : BT.709
Matrix coefficients : BT.709
Audio #1
ID : 2
Format : AC-3
Format/Info : Audio Coding 3
Codec ID : A_AC3
Duration : 1 h 35 min
Bit rate mode : Constant
Bit rate : 192 kb/s
Channel(s) : 2 channels
Channel positions : Front: L R
Sampling rate : 48.0 kHz
Frame rate : 31.250 FPS (1536 SPF)
Bit depth : 16 bits
Compression mode : Lossy
Stream size : 131 MiB (0%)
Title : AC3 2.0 @ 192 kbps - MVO
Language : Russian
Service kind : Complete Main
Default : Yes
Forced : No
Audio #2
ID : 3
Format : AC-3
Format/Info : Audio Coding 3
Codec ID : A_AC3
Duration : 1 h 35 min
Bit rate mode : Constant
Bit rate : 192 kb/s
Channel(s) : 2 channels
Channel positions : Front: L R
Sampling rate : 48.0 kHz
Frame rate : 31.250 FPS (1536 SPF)
Bit depth : 16 bits
Compression mode : Lossy
Stream size : 131 MiB (0%)
Title : AC3 2.0 @ 192 kbps - AVO, С. Визгунов
Language : Russian
Service kind : Complete Main
Default : No
Forced : No
Audio #3
ID : 4
Format : AC-3
Format/Info : Audio Coding 3
Codec ID : A_AC3
Duration : 1 h 35 min
Bit rate mode : Constant
Bit rate : 192 kb/s
Channel(s) : 2 channels
Channel positions : Front: L R
Sampling rate : 48.0 kHz
Frame rate : 31.250 FPS (1536 SPF)
Bit depth : 16 bits
Compression mode : Lossy
Stream size : 131 MiB (0%)
Title : AC3 2.0 @ 192 kbps - AVO, А. Гаврилов
Language : Russian
Service kind : Complete Main
Default : No
Forced : No
Audio #4
ID : 5
Format : AC-3
Format/Info : Audio Coding 3
Codec ID : A_AC3
Duration : 1 h 35 min
Bit rate mode : Constant
Bit rate : 192 kb/s
Channel(s) : 2 channels
Channel positions : Front: L R
Sampling rate : 48.0 kHz
Frame rate : 31.250 FPS (1536 SPF)
Bit depth : 16 bits
Compression mode : Lossy
Stream size : 131 MiB (0%)
Title : AC3 2.0 @ 192 kbps - AVO, В. Штейн
Language : Russian
Service kind : Complete Main
Default : No
Forced : No
Audio #5
ID : 6
Format : DTS
Format/Info : Digital Theater Systems
Format profile : MA / Core
Codec ID : A_DTS
Duration : 1 h 35 min
Bit rate mode : Variable / Constant
Bit rate : 2 112 kb/s / 1 509 kb/s
Channel(s) : 2 channels
Channel positions : Front: L R
Sampling rate : 48.0 kHz
Frame rate : 93.750 FPS (512 SPF)
Bit depth : 24 bits
Compression mode : Lossless / Lossy
Stream size : 1.41 GiB (5%)
Title : DTS-HD MA 2.0 @ 2112 kdps
Language : English
Default : No
Forced : No
Audio #6
ID : 7
Format : DTS
Format/Info : Digital Theater Systems
Format profile : MA / Core
Codec ID : A_DTS
Duration : 1 h 35 min
Bit rate mode : Variable / Constant
Bit rate : 1 064 kb/s / 768 kb/s
Channel(s) : 1 channel
Channel positions : Front: C
Sampling rate : 48.0 kHz
Frame rate : 93.750 FPS (512 SPF)
Bit depth : 24 bits
Compression mode : Lossless / Lossy
Stream size : 730 MiB (3%)
Title : DTS-HD MA 1.0 @ 1064 kdps
Language : English
Default : No
Forced : No
Audio #7
ID : 8
Format : DTS
Format/Info : Digital Theater Systems
Format profile : MA / Core
Codec ID : A_DTS
Duration : 1 h 35 min
Bit rate mode : Variable / Constant
Bit rate : 1 106 kb/s / 768 kb/s
Channel(s) : 1 channel
Channel positions : Front: C
Sampling rate : 48.0 kHz
Frame rate : 93.750 FPS (512 SPF)
Bit depth : 24 bits
Compression mode : Lossless / Lossy
Stream size : 758 MiB (3%)
Title : DTS-HD MA 1.0 @ 1106 kdps
Language : German
Default : No
Forced : No
Audio #8
ID : 9
Format : AC-3
Format/Info : Audio Coding 3
Codec ID : A_AC3
Duration : 1 h 35 min
Bit rate mode : Constant
Bit rate : 192 kb/s
Channel(s) : 2 channels
Channel positions : Front: L R
Sampling rate : 48.0 kHz
Frame rate : 31.250 FPS (1536 SPF)
Bit depth : 16 bits
Compression mode : Lossy
Stream size : 132 MiB (0%)
Title : Commentary with Ruggero Deodato and Robert Kerman
Language : English
Service kind : Complete Main
Default : No
Forced : No
Audio #9
ID : 10
Format : AC-3
Format/Info : Audio Coding 3
Codec ID : A_AC3
Duration : 1 h 35 min
Bit rate mode : Constant
Bit rate : 192 kb/s
Channel(s) : 2 channels
Channel positions : Front: L R
Sampling rate : 48.0 kHz
Frame rate : 31.250 FPS (1536 SPF)
Bit depth : 16 bits
Compression mode : Lossy
Stream size : 132 MiB (0%)
Title : Commentary with Carl Yorke and Francesca Ciardi
Language : English
Service kind : Complete Main
Default : No
Forced : No
Audio #10
ID : 11
Format : AC-3
Format/Info : Audio Coding 3
Codec ID : A_AC3
Duration : 1 h 35 min
Bit rate mode : Constant
Bit rate : 320 kb/s
Channel(s) : 2 channels
Channel positions : Front: L R
Sampling rate : 48.0 kHz
Frame rate : 31.250 FPS (1536 SPF)
Bit depth : 16 bits
Compression mode : Lossy
Stream size : 219 MiB (1%)
Title : Commentary with Marcus Stiglegger and Kai Naumann
Language : German
Service kind : Complete Main
Default : No
Forced : No
Text #1
ID : 12
Format : UTF-8
Codec ID : S_TEXT/UTF8
Codec ID/Info : UTF-8 Plain Text
Duration : 1 h 31 min
Bit rate : 61 b/s
Count of elements : 760
Stream size : 41.4 KiB (0%)
Title : andugan
Language : Russian
Default : No
Forced : No
Text #2
ID : 13
Format : UTF-8
Codec ID : S_TEXT/UTF8
Codec ID/Info : UTF-8 Plain Text
Duration : 1 h 31 min
Bit rate : 38 b/s
Count of elements : 767
Stream size : 26.1 KiB (0%)
Language : English
Default : No
Forced : No
Menu
00:00:00.000 : de:Der Dschungel
00:09:39.620 : de:Der Besuch
00:19:46.435 : de:Bestrafung
00:26:34.509 : de:Im Dorf
00:31:10.285 : de:Angriff
00:35:28.543 : de:Im Fluss
00:41:35.826 : de:New York
00:45:38.569 : de:Das Team
00:53:00.385 : de:Die Schidkröte
01:04:06.342 : de:Das Massaker
01:16:45.267 : de:Besprechung
01:28:09.492 : de:Zerfleischt
Скриншоты:

Дополнительные скриншоты:



Показать сообщения:    

Текущее время: 10-Дек 07:33

Часовой пояс: UTC + 3


Вы не можете начинать темы
Вы не можете отвечать на сообщения
Вы не можете редактировать свои сообщения
Вы не можете удалять свои сообщения
Вы не можете голосовать в опросах
Вы не можете прикреплять файлы к сообщениям
Вы не можете скачивать файлы

!ВНИМАНИЕ!
Сайт не предоставляет электронные версии произведений, а занимается лишь коллекционированием и каталогизацией ссылок, присылаемых и публикуемых на форуме нашими читателями. Если вы являетесь правообладателем какого-либо представленного материала и не желаете, чтобы ссылка на него находилась в нашем каталоге, свяжитесь с нами, и мы незамедлительно удалим ее. Файлы для обмена на трекере предоставлены пользователями сайта, и администрация не несет ответственности за их содержание. Просьба не заливать файлы, защищенные авторскими правами, а также файлы нелегального содержания!