[Цитировать]

--Судная ночь. Начало / The First Purge (2018) UHD BDRemux (H.265/2160p) (4K, HDR, 10-bit)-- Производство: США / Blumhouse Productions, Perfect World Pictures, Platinum Dunes
Жанр: Ужасы, Фантастика, Триллер, Боевик
Режиссер: Герард МакМюррей
Актеры: И'лан Ноэль, Лекс Скотт Дэвис, Джойван Вейд, Магга, Патрик Дарро, Мариса Томей, Лорен Луна Велес, Кристен Солис, Ротими Пол, Мо
Описание:
Хотели бы вы жить в идеальном мире, где нет преступности, безработицы и войн?
Единственная плата за такое счастливое будущее — это одна ночь абсолютного беззакония в году.
Ночь, когда дозволено всё. Согласны поучаствовать в таком социальном эксперименте?

Возраст: 18+ (зрителям, достигшим 18 лет. запрещено для детей)
Рейтинг MPAA: R (лицам до 17 лет обязательно присутствие взрослого)
Дата мировой премьеры: 4 июля 2018
Дата российской премьеры: 2 августа 2018, «UPI»
Релиз от: TeamHD
Продолжительность: 01:37:25
Качество видео: UHD BDRemux
Перевод: Дублированный (iTunes)
Субтитры: Английские
Видео: HEVC/H.265, 3840x2160, ~64,3 Mbps
Аудио 01: AC3, 6 ch, 384 Kbps - Русский (DUB)
Аудио 02: DTS-HD X/MA, 8 ch, 6816 Kbps - Английский

Mediainfo:

Общее
Уникальный идентификатор : 92444934390366117026320477220341032002 (0x458C3F2A053F7FAB28E0F6465A502442)
Полное имя : D:\Download\The.First.Purge.2018.UHD.2160p.BDRemux.mkv
Формат : Matroska
Версия формата : Version 4 / Version 2
Размер файла : 48,6 Гбайт
Продолжительность : 1 ч. 37 м.
Общий поток : 71,5 Мбит/сек
Название фильма : The First Purge 4K (2018) TeamHD-селезень
Дата кодирования : UTC 2018-09-30 13:37:31
Программа кодирования : mkvmerge v23.0.0 ('The Bride Said No') 64-bit
Библиотека кодирования : libebml v1.3.6 + libmatroska v1.4.9
Видео
Идентификатор : 1
Формат : HEVC
Формат/Информация : High Efficiency Video Coding
Коммерческое название : HDR10
Профиль формата : Main [email protected]@High
Идентификатор кодека : V_MPEGH/ISO/HEVC
Продолжительность : 1 ч. 37 м.
Битрейт : 64,3 Мбит/сек
Ширина : 3840 пикселей
Высота : 2160 пикселей
Соотношение сторон : 16:9
Режим частоты кадров : Постоянный
Частота кадров : 23,976 (24000/1001) кадра/сек
Цветовое пространство : YUV
Субдискретизация насыщенности : 4:2:0 (Type 2)
Битовая глубина : 10 бит
Бит/(Пиксели*Кадры) : 0.323
Размер потока : 43,7 Гбайт (90%)
Библиотека кодирования : ATEME Titan File 3.8.16 (4.8.16.0)
Язык : English
Default : Да
Forced : Нет
Цветовой диапазон : Limited
Основные цвета : BT.2020
Характеристики трансфера : PQ
Коэффициенты матрицы : BT.2020 non-constant
MasteringDisplay_ColorPrimaries : Display P3
MasteringDisplay_Luminance : min: 0.0050 cd/m2, max: 1000 cd/m2
MaxCLL : 1000 cd/m2
MaxFALL : 202 cd/m2
Аудио #1
Идентификатор : 2
Формат : AC-3
Формат/Информация : Audio Coding 3
Идентификатор кодека : A_AC3
Продолжительность : 1 ч. 37 м.
Вид битрейта : Постоянный
Битрейт : 384 Кбит/сек
Каналы : 6 каналов
Расположение каналов : Front: L C R, Side: L R, LFE
Частота : 48,0 КГц
Частота кадров : 31,250 кадров/сек (1536 SPF)
Битовая глубина : 16 бит
Метод сжатия : С потерями
Размер потока : 268 Мбайт (1%)
Заголовок : iTunes
Язык : Russian
ServiceKind/String : Complete Main
Default : Да
Forced : Да
Аудио #2
Идентификатор : 3
Формат : DTS
Формат/Информация : Digital Theater Systems
Профиль формата : X / MA / Core
Идентификатор кодека : A_DTS
Продолжительность : 1 ч. 37 м.
Вид битрейта : Переменный / Переменный / Постоянный
Битрейт : 6816 Кбит/сек / 6816 Кбит/сек / 1509 Кбит/сек
Каналы : Object Based / 8 каналов / 6 каналов
Расположение каналов : Object Based / Front: L C R, Side: L R, Back: L R, LFE / Front: L C R, Side: L R, LFE
Частота : / 48,0 КГц / 48,0 КГц
Частота кадров : 93,750 кадра/сек (512 SPF)
Битовая глубина : / 24 бит / 24 бит
Метод сжатия : / Lossless / Lossy
Размер потока : 4,64 Гбайт (10%)
Заголовок : Original
Язык : English
Default : Нет
Forced : Нет
Текст #1
Идентификатор : 4
Формат : UTF-8
Идентификатор кодека : S_TEXT/UTF8
Идентификатор кодека/Информация : UTF-8 Plain Text
Продолжительность : 1 ч. 30 м.
Битрейт : 59 бит/сек
ElementCount : 1244
Размер потока : 39,4 Кбайт (0%)
Заголовок : Full
Язык : English
Default : Нет
Forced : Нет
Текст #2
Идентификатор : 5
Формат : UTF-8
Идентификатор кодека : S_TEXT/UTF8
Идентификатор кодека/Информация : UTF-8 Plain Text
Продолжительность : 1 ч. 33 м.
Битрейт : 69 бит/сек
ElementCount : 1496
Размер потока : 47,2 Кбайт (0%)
Заголовок : SDH
Язык : English
Default : Нет
Forced : Нет
Текст #3
Идентификатор : 6
Формат : UTF-8
Идентификатор кодека : S_TEXT/UTF8
Идентификатор кодека/Информация : UTF-8 Plain Text
Продолжительность : 1 ч. 36 м.
Битрейт : 138 бит/сек
ElementCount : 1880
Размер потока : 98,2 Кбайт (0%)
Заголовок : SDH Colored
Язык : English
Default : Нет
Forced : Нет
Меню
00:00:00.000 : en:Chapter 01
00:06:25.635 : en:Chapter 02
00:11:59.802 : en:Chapter 03
00:16:18.769 : en:Chapter 04
00:21:18.110 : en:Chapter 05
00:25:56.388 : en:Chapter 06
00:30:54.144 : en:Chapter 07
00:35:31.212 : en:Chapter 08
00:38:41.110 : en:Chapter 09
00:43:02.455 : en:Chapter 10
00:48:34.411 : en:Chapter 11
00:53:35.087 : en:Chapter 12
00:55:59.565 : en:Chapter 13
00:59:13.049 : en:Chapter 14
01:05:25.713 : en:Chapter 15
01:09:31.793 : en:Chapter 16
01:13:23.733 : en:Chapter 17
01:19:47.533 : en:Chapter 18
01:24:50.043 : en:Chapter 19
01:29:54.931 : en:Chapter 20

Дополнительная информация:

Диск на Blu-ray.com
Просмотр 4K HDR-контента на ПК

Скриншоты:


Показать сообщения:    

Текущее время: 21-Ноя 16:47

Часовой пояс: UTC + 3


Вы не можете начинать темы
Вы не можете отвечать на сообщения
Вы не можете редактировать свои сообщения
Вы не можете удалять свои сообщения
Вы не можете голосовать в опросах
Вы не можете прикреплять файлы к сообщениям
Вы не можете скачивать файлы

!ВНИМАНИЕ!
Сайт не предоставляет электронные версии произведений, а занимается лишь коллекционированием и каталогизацией ссылок, присылаемых и публикуемых на форуме нашими читателями. Если вы являетесь правообладателем какого-либо представленного материала и не желаете, чтобы ссылка на него находилась в нашем каталоге, свяжитесь с нами, и мы незамедлительно удалим ее. Файлы для обмена на трекере предоставлены пользователями сайта, и администрация не несет ответственности за их содержание. Просьба не заливать файлы, защищенные авторскими правами, а также файлы нелегального содержания!