[Цитировать]

Иван Кучин - 12 Альбомов [1994-2018] -
Год: 1994-2018
Жанр: Шансон, Авторская песня
Источник (релизер): eloychik ®
Продолжительность: 11:13:59
Кодек: FLAC
Битрейт: Lossless
Тип рипа: image + cue

1994 - Из лагерной лирики

Издание: Марафон AXCD 2-0051
Продолжительность - 01:11:09
Треклист:
01. Мостик
02. Судьба - злодейка
03. Рецидивист
04. Последнее письмо
05. Сон
06. Запретная зона
07. Чикаго
08. Заочница
09. Зэчка
10. Душа - колючка
11. За здоровье, за мое...
12. Колечко
13. На перроне вокзала
14. Обыкновенная
15. Подруга по жизни
16. Вор и судья
17. Сентиментальный детектив
18. Босяцкая лирическая
19. Натаха
20. До свидания, друг

Отчёт ЕАС:

Exact Audio Copy V1.3 from 2. September 2016
Отчёт EAC об извлечении, выполненном 16. апреля 2018, 19:28
Иван Кучин / Из лагерной лирики
Дисковод: ASUS    DRW-24D5MT   Adapter: 1  ID: 0
Режим чтения                 : Достоверность
Использование точного потока : Да
Отключение кэша аудио        : Да
Использование указателей C2  : Нет
Коррекция смещения при чтении                     : 6
Способность читать области Lead-in и Lead-out     : Нет
Заполнение пропущенных сэмплов тишиной            : Да
Удаление блоков с тишиной в начале и конце        : Нет
При вычислениях CRC использовались нулевые сэмплы : Да
Интерфейс                                         : Встроенный Win32-интерфейс для Win NT/2000
Выходной формат          : Пользовательский кодировщик
Выбранный битрейт        : 128 kBit/s
Качество                 : Высокий
Добавление ID3-тега      : Нет
Утилита сжатия           : C:\Program Files (x86)\Exact Audio Copy\Flac\flac.exe
Дополнительные параметры :  -V -8 -T "Date=%year%" -T "Genre=%genre%" %source%
TOC извлечённого CD
     Трек |   Старт  | Длительность | Начальный сектор | Конечный сектор
    ---------------------------------------------------------------------
       1  |  0:00.28 |    2:56.40   |          28      |      13267
       2  |  2:56.68 |    3:41.35   |       13268      |      29877
       3  |  6:38.28 |    3:45.60   |       29878      |      46812
       4  | 10:24.13 |    3:54.70   |       46813      |      64432
       5  | 14:19.08 |    3:18.35   |       64433      |      79317
       6  | 17:37.43 |    3:30.72   |       79318      |      95139
       7  | 21:08.40 |    3:40.00   |       95140      |     111639
       8  | 24:48.40 |    3:33.00   |      111640      |     127614
       9  | 28:21.40 |    4:00.30   |      127615      |     145644
      10  | 32:21.70 |    2:51.38   |      145645      |     158507
      11  | 35:13.33 |    2:51.30   |      158508      |     171362
      12  | 38:04.63 |    3:50.45   |      171363      |     188657
      13  | 41:55.33 |    4:02.35   |      188658      |     206842
      14  | 45:57.68 |    3:39.17   |      206843      |     223284
      15  | 49:37.10 |    4:02.45   |      223285      |     241479
      16  | 53:39.55 |    3:28.35   |      241480      |     257114
      17  | 57:08.15 |    3:41.73   |      257115      |     273762
      18  | 60:50.13 |    2:42.47   |      273763      |     285959
      19  | 63:32.60 |    3:18.68   |      285960      |     300877
      20  | 66:51.53 |    4:17.50   |      300878      |     320202
Характеристики диапазона извлечения и сообщения об ошибках
Выбранный диапазон
     Имя файла E:\Раздачи\TORRNADA-eloychik ®\Иван Кучин - 11 Альбомов [torrnada.ME]\1994 - Из лагерной лирики\Иван Кучин - Из лагерной лирики.wav
     Пиковый уровень 100.0 %
     Скорость извлечения 3.5 X
     Качество диапазона 100.0 %
     CRC теста 5FA7505F
     CRC копии 5FA7505F
     Копирование... OK
Ошибок не произошло
AccurateRip: сводка
Трек  1  : извлечено точно (доверие 1)  [A9750FE3]  (AR v2)
Трек  2  : извлечено точно (доверие 1)  [57CE9670]  (AR v2)
Трек  3  точность не определена (достоверность 1)  [AD6B2819], AccurateRip вернул [D83514F5]  (AR v2)
Трек  4  : извлечено точно (доверие 1)  [AE790E82]  (AR v2)
Трек  5  : извлечено точно (доверие 1)  [C335FAD9]  (AR v2)
Трек  6  : извлечено точно (доверие 1)  [FA374ED2]  (AR v2)
Трек  7  : извлечено точно (доверие 1)  [34A2A1F5]  (AR v2)
Трек  8  : извлечено точно (доверие 1)  [A2CCE8CA]  (AR v2)
Трек  9  : извлечено точно (доверие 1)  [D819E2B4]  (AR v2)
Трек 10  : извлечено точно (доверие 1)  [CB060F55]  (AR v2)
Трек 11  : извлечено точно (доверие 1)  [C246A3D9]  (AR v2)
Трек 12  : извлечено точно (доверие 1)  [C53FE182]  (AR v2)
Трек 13  : извлечено точно (доверие 1)  [B79054A0]  (AR v2)
Трек 14  : извлечено точно (доверие 1)  [761B045D]  (AR v2)
Трек 15  : извлечено точно (доверие 1)  [1BD21A9E]  (AR v2)
Трек 16  : извлечено точно (доверие 1)  [5F346BA5]  (AR v2)
Трек 17  точность не определена (достоверность 1)  [23917124], AccurateRip вернул [92F05126]  (AR v2)
Трек 18  точность не определена (достоверность 1)  [8D4A0A4C], AccurateRip вернул [9BD2B97F]  (AR v2)
Трек 19  точность не определена (достоверность 1)  [9E697F77], AccurateRip вернул [B7EF3192]  (AR v2)
Трек 20  точность не определена (достоверность 1)  [0723C63B], AccurateRip вернул [B80FD98B]  (AR v2)
15 трек(и) скопированы точно
5 трек(и) не удалось проверить на точность
Некоторые треки не прошли проверку на точность
Конец отчёта
==== Контрольная сумма отчёта EB3DB8A8C61CFEBDFCEEADD2FD06221EDEDD2D9C8AB68E7912B5AF0634D6125E ====

Cue Sheet (.cue):

REM GENRE Chanson
REM DATE 1994
REM DISCID 0D10AD14
REM COMMENT "ExactAudioCopy v1.3"
PERFORMER "Иван Кучин"
TITLE "Из лагерной лирики"
REM COMPOSER ""
FILE "Иван Кучин - Из лагерной лирики.flac" WAVE
  TRACK 01 AUDIO
    TITLE "Мостик"
    PERFORMER "Иван Кучин"
    REM COMPOSER ""
    INDEX 00 00:00:00
    INDEX 01 00:00:28
  TRACK 02 AUDIO
    TITLE "Судьба - злодейка"
    PERFORMER "Иван Кучин"
    REM COMPOSER ""
    INDEX 00 02:56:63
    INDEX 01 02:56:68
  TRACK 03 AUDIO
    TITLE "Рецидивист"
    PERFORMER "Иван Кучин"
    REM COMPOSER ""
    INDEX 00 06:38:23
    INDEX 01 06:38:28
  TRACK 04 AUDIO
    TITLE "Последнее письмо"
    PERFORMER "Иван Кучин"
    REM COMPOSER ""
    INDEX 00 10:24:10
    INDEX 01 10:24:13
  TRACK 05 AUDIO
    TITLE "Сон"
    PERFORMER "Иван Кучин"
    REM COMPOSER ""
    INDEX 00 14:19:03
    INDEX 01 14:19:08
  TRACK 06 AUDIO
    TITLE "Запретная зона"
    PERFORMER "Иван Кучин"
    REM COMPOSER ""
    INDEX 00 17:37:40
    INDEX 01 17:37:43
  TRACK 07 AUDIO
    TITLE "Чикаго"
    PERFORMER "Иван Кучин"
    REM COMPOSER ""
    INDEX 00 21:08:35
    INDEX 01 21:08:40
  TRACK 08 AUDIO
    TITLE "Заочница"
    PERFORMER "Иван Кучин"
    REM COMPOSER ""
    INDEX 00 24:48:35
    INDEX 01 24:48:40
  TRACK 09 AUDIO
    TITLE "Зэчка"
    PERFORMER "Иван Кучин"
    REM COMPOSER ""
    INDEX 00 28:21:35
    INDEX 01 28:21:40
  TRACK 10 AUDIO
    TITLE "Душа - колючка"
    PERFORMER "Иван Кучин"
    REM COMPOSER ""
    INDEX 00 32:21:65
    INDEX 01 32:21:70
  TRACK 11 AUDIO
    TITLE "За здоровье, за мое..."
    PERFORMER "Иван Кучин"
    REM COMPOSER ""
    INDEX 00 35:13:28
    INDEX 01 35:13:33
  TRACK 12 AUDIO
    TITLE "Колечко"
    PERFORMER "Иван Кучин"
    REM COMPOSER ""
    INDEX 00 38:04:60
    INDEX 01 38:04:63
  TRACK 13 AUDIO
    TITLE "На перроне вокзала"
    PERFORMER "Иван Кучин"
    REM COMPOSER ""
    INDEX 00 41:55:28
    INDEX 01 41:55:33
  TRACK 14 AUDIO
    TITLE "Обыкновенная"
    PERFORMER "Иван Кучин"
    REM COMPOSER ""
    INDEX 00 45:57:63
    INDEX 01 45:57:68
  TRACK 15 AUDIO
    TITLE "Подруга по жизни"
    PERFORMER "Иван Кучин"
    REM COMPOSER ""
    INDEX 00 49:37:08
    INDEX 01 49:37:10
  TRACK 16 AUDIO
    TITLE "Вор и судья"
    PERFORMER "Иван Кучин"
    REM COMPOSER ""
    INDEX 00 53:39:50
    INDEX 01 53:39:55
  TRACK 17 AUDIO
    TITLE "Сентиментальный детектив"
    PERFORMER "Иван Кучин"
    REM COMPOSER ""
    INDEX 00 57:08:10
    INDEX 01 57:08:15
  TRACK 18 AUDIO
    TITLE "Босяцкая лирическая"
    PERFORMER "Иван Кучин"
    REM COMPOSER ""
    INDEX 00 60:50:08
    INDEX 01 60:50:13
  TRACK 19 AUDIO
    TITLE "Натаха"
    PERFORMER "Иван Кучин"
    REM COMPOSER ""
    INDEX 00 63:32:58
    INDEX 01 63:32:60
  TRACK 20 AUDIO
    TITLE "До свидания, друг"
    PERFORMER "Иван Кучин"
    REM COMPOSER ""
    INDEX 00 66:51:50
    INDEX 01 66:51:53

Отчёт auCDtect Task manager:

-----------------------
DON'T MODIFY THIS FILE
-----------------------
PERFORMER: auCDtect Task Manager, ver. 1.6.0 RC1 build 1.6.0.1
Copyright (c) 2008-2010 y-soft. All rights reserved
http://y-soft.org
ANALYZER: auCDtect: CD records authenticity detector, version 0.8.2
Copyright (c) 2004 Oleg Berngardt. All rights reserved.
Copyright (c) 2004 Alexander Djourik. All rights reserved.
FILE: Иван Кучин - Из лагерной лирики.flac
  Size: 434076426 Hash: BAEBB33BD454AC4A63CD206F73DDD56D Accuracy: -m0
  Conclusion: CDDA 100%
  Signature: 57A2732AA0E806D56F314A8E45801A3CCDEEE612

1995 - Хрустальная ваза

Издание: Pусское Снабжение RS95020
Продолжительноcть - 00:46:18
Треклиcт:
01. Сыночек 1987г.
02. Куст рябины 1989г.
03. Хрустальная ваза 1985г.
04. Черное прошлое 1989г.
05. Нищенка 1995г.
06. А на бокале муха 1988г.
07. Свидание 1988г.
08. Бандитский нож 1988г.
09. Заряженный наган 1989г.
10. Милая 1995г.
11. Шняга 1988г.
12. Хозяин 1988г.
13. Корешок 1988г.

Отчёт ЕАС:

Exact Audio Copy V1.0 beta 3 from 29. August 2011
Отчёт EAC об извлечении, выполненном 17. июля 2016, 9:22
Иван Кучин / Хрустальная ваза
Дисковод: ASUS    DRW-24B3ST   Adapter: 3  ID: 0
Режим чтения                 : Достоверность
Использование точного потока : Да
Отключение кэша аудио        : Да
Использование указателей C2  : Нет
Коррекция смещения при чтении                     : 6
Способность читать области Lead-in и Lead-out     : Нет
Заполнение пропущенных сэмплов тишиной            : Да
Удаление блоков с тишиной в начале и конце        : Нет
При вычислениях CRC использовались нулевые сэмплы : Да
Интерфейс                                         : Встроенный Win32-интерфейс для Win NT/2000
Выходной формат          : Пользовательский кодировщик
Выбранный битрейт        : 128 kBit/s
Качество                 : Высокий
Добавление ID3-тега      : Нет
Утилита сжатия           : C:\Program Files (x86)\Exact Audio Copy\Flac\flac.exe
Дополнительные параметры :  -V -8 -T "Date=%year%" -T "Genre=%genre%" %source%
TOC извлечённого CD
     Трек |   Старт  | Длительность | Начальный сектор | Конечный сектор
    ---------------------------------------------------------------------
       1  |  0:00.25 |    3:44.50   |          25      |      16874
       2  |  3:45.00 |    3:39.00   |       16875      |      33299
       3  |  7:24.00 |    5:40.62   |       33300      |      58861
       4  | 13:04.62 |    3:25.38   |       58862      |      74274
       5  | 16:30.25 |    3:35.50   |       74275      |      90449
       6  | 20:06.00 |    2:22.00   |       90450      |     101099
       7  | 22:28.00 |    4:19.00   |      101100      |     120524
       8  | 26:47.00 |    4:06.00   |      120525      |     138974
       9  | 30:53.00 |    3:06.25   |      138975      |     152949
      10  | 33:59.25 |    3:45.50   |      152950      |     169874
      11  | 37:45.00 |    2:33.25   |      169875      |     181374
      12  | 40:18.25 |    3:21.50   |      181375      |     196499
      13  | 43:40.00 |    2:37.25   |      196500      |     208299
Характеристики диапазона извлечения и сообщения об ошибках
Выбранный диапазон
     Имя файла E:\РАЗДАЧИ\TORRNADA-eloychik ®\Иван Кучин [TORRNADA]\1995 - Хрустальная ваза\Иван Кучин - Хрустальная ваза.wav
     Пиковый уровень 91.8 %
     Скорость извлечения 5.5 X
     Качество диапазона 100.0 %
     CRC теста C7336754
     CRC копии C7336754
     Копирование... OK
Ошибок не произошло
AccurateRip: сводка
Трек  1  : извлечено точно (доверие 1)  [3FB0A4BF]  (AR v1)
Трек  2  : извлечено точно (доверие 1)  [9B09E352]  (AR v1)
Трек  3  : извлечено точно (доверие 1)  [B96D5E5D]  (AR v1)
Трек  4  : извлечено точно (доверие 1)  [4F256F12]  (AR v1)
Трек  5  : извлечено точно (доверие 1)  [5D8618D4]  (AR v1)
Трек  6  : извлечено точно (доверие 1)  [93AE0984]  (AR v1)
Трек  7  : извлечено точно (доверие 1)  [49536D00]  (AR v1)
Трек  8  : извлечено точно (доверие 1)  [95A319E2]  (AR v1)
Трек  9  : извлечено точно (доверие 1)  [C4327B01]  (AR v1)
Трек 10  : извлечено точно (доверие 1)  [E87F7E95]  (AR v1)
Трек 11  : извлечено точно (доверие 1)  [38651AB8]  (AR v1)
Трек 12  : извлечено точно (доверие 1)  [C85A49C9]  (AR v1)
Трек 13  : извлечено точно (доверие 1)  [67BFFF78]  (AR v1)
Все треки извлечены точно
Конец отчёта
==== Контрольная сумма отчёта 9B080BE7DDF87F72F612FDDFFE43AF2E12B4DF53C50794C8FE7597BBE0D9A772 ====

Cue Sheet (.cue):

REM GENRE Chanson
REM DATE 1995
REM DISCID A70AD90D
REM COMMENT "ExactAudioCopy v1.0b3"
PERFORMER "Иван Кучин"
TITLE "Хрустальная ваза"
FILE "Иван Кучин - Хрустальная ваза.flac" WAVE
  TRACK 01 AUDIO
    TITLE "Сыночек"
    PERFORMER "Иван Кучин"
    INDEX 00 00:00:00
    INDEX 01 00:00:25
  TRACK 02 AUDIO
    TITLE "Куст рябины"
    PERFORMER "Иван Кучин"
    INDEX 00 03:39:25
    INDEX 01 03:45:00
  TRACK 03 AUDIO
    TITLE "Хрустальная ваза"
    PERFORMER "Иван Кучин"
    INDEX 00 07:20:00
    INDEX 01 07:24:00
  TRACK 04 AUDIO
    TITLE "Черное прошлое"
    PERFORMER "Иван Кучин"
    INDEX 00 13:00:00
    INDEX 01 13:04:62
  TRACK 05 AUDIO
    TITLE "Нищенка"
    PERFORMER "Иван Кучин"
    INDEX 00 16:27:25
    INDEX 01 16:30:25
  TRACK 06 AUDIO
    TITLE "На бокале муха"
    PERFORMER "Иван Кучин"
    INDEX 00 20:02:25
    INDEX 01 20:06:00
  TRACK 07 AUDIO
    TITLE "Свидание"
    PERFORMER "Иван Кучин"
    INDEX 00 22:24:50
    INDEX 01 22:28:00
  TRACK 08 AUDIO
    TITLE "Бандитский нож"
    PERFORMER "Иван Кучин"
    INDEX 00 26:43:25
    INDEX 01 26:47:00
  TRACK 09 AUDIO
    TITLE "Заряженный наган"
    PERFORMER "Иван Кучин"
    INDEX 00 30:48:25
    INDEX 01 30:53:00
  TRACK 10 AUDIO
    TITLE "Милая"
    PERFORMER "Иван Кучин"
    INDEX 00 33:56:00
    INDEX 01 33:59:25
  TRACK 11 AUDIO
    TITLE "Шняга"
    PERFORMER "Иван Кучин"
    INDEX 00 37:41:25
    INDEX 01 37:45:00
  TRACK 12 AUDIO
    TITLE "Хозяин"
    PERFORMER "Иван Кучин"
    INDEX 00 40:16:25
    INDEX 01 40:18:25
  TRACK 13 AUDIO
    TITLE "Корешок"
    PERFORMER "Иван Кучин"
    INDEX 00 43:35:25
    INDEX 01 43:40:00

Отчёт auCDtect Task manager:

-----------------------
DON'T MODIFY THIS FILE
-----------------------
PERFORMER: auCDtect Task Manager, ver. 1.6.0 RC1 build 1.6.0.1
Copyright (c) 2008-2010 y-soft. All rights reserved
http://y-soft.org
ANALYZER: auCDtect: CD records authenticity detector, version 0.8.2
Copyright (c) 2004 Oleg Berngardt. All rights reserved.
Copyright (c) 2004 Alexander Djourik. All rights reserved.
FILE: Иван Кучин - Хрустальная ваза.flac
  Size: 306360713 Hash: 7395295B0F485AD2B35B43E9117A93ED Accuracy: -m0
  Conclusion: MPEG 95%
  Signature: 15A36A412D4C5F8B0CB94C8C9F2CA509226F3542

Отчёт Audiochecker:

AUDIOCHECKER v2.0 beta (build 457) - by Dester - [email protected]
~~~~~~~~~~~~~~~~~~~~~~~~~~~~~~~~~~
Начато: воскресенье, 17. 07. 2016. - 12:34.47
Найдено файлов: 13
01 -===- E:\1995 - Хрустальная ваза\01. Сыночек.wav
  Заключение: этот трек - CDDA с вероятностью 99%
02 -===- E:\1995 - Хрустальная ваза\02. Куст рябины.wav
  Заключение: этот трек - MPEG с вероятностью 95%
03 -===- E:\1995 - Хрустальная ваза\03. Хрустальная ваза.wav
  Заключение: этот трек - CDDA с вероятностью 100%
04 -===- E:\1995 - Хрустальная ваза\04. Черное прошлое.wav
  Заключение: этот трек - CDDA с вероятностью 99%
05 -===- E:\1995 - Хрустальная ваза\05. Нищенка.wav
  Заключение: этот трек - CDDA с вероятностью 100%
06 -===- E:\1995 - Хрустальная ваза\06. На бокале муха.wav
  Заключение: этот трек - CDDA с вероятностью 100%
07 -===- E:\1995 - Хрустальная ваза\07. Свидание.wav
  Заключение: этот трек - CDDA с вероятностью 100%
08 -===- E:\1995 - Хрустальная ваза\08. Бандитский нож.wav
  Заключение: этот трек - CDDA с вероятностью 100%
09 -===- E:\1995 - Хрустальная ваза\09. Заряженный наган.wav
  Заключение: не удалось определить источник этого трека
10 -===- E:\1995 - Хрустальная ваза\10. Милая.wav
  Заключение: этот трек - CDDA с вероятностью 100%
11 -===- E:\1995 - Хрустальная ваза\11. Шняга.wav
  Заключение: этот трек - CDDA с вероятностью 100%
12 -===- E:\1995 - Хрустальная ваза\12. Хозяин.wav
  Заключение: этот трек - CDDA с вероятностью 100%
13 -===- E:\1995 - Хрустальная ваза\13. Корешок.wav
  Заключение: этот трек - CDDA с вероятностью 100%
Завершено: воскресенье, 17. 07. 2016. - 12:37.08 (Время операции: 0:02.20)

Спектрограмма:

1996 - Избранное

Издание: CC CD 37/96
Продолжительность - 00:45:22
Треклист:
01. Не уходи
02. В таверне
03. Заряженный наган
04. Обыкновенная
05. Сентиментальный детектив, ч.1
06. Свидание
07. Шняга
08. Судьба-злодейка
09. Чикаго
10. Мостик
11. Последнее письмо
12. Сон
13. Босяцкая

Отчёт ЕАС:

Exact Audio Copy V1.3 from 2. September 2016
Отчёт EAC об извлечении, выполненном 16. декабря 2017, 17:06
Иван Кучин / Избранное
Дисковод: ASUS    DRW-24D5MT   Adapter: 1  ID: 0
Режим чтения                 : Достоверность
Использование точного потока : Да
Отключение кэша аудио        : Да
Использование указателей C2  : Нет
Коррекция смещения при чтении                     : 6
Способность читать области Lead-in и Lead-out     : Нет
Заполнение пропущенных сэмплов тишиной            : Да
Удаление блоков с тишиной в начале и конце        : Нет
При вычислениях CRC использовались нулевые сэмплы : Да
Интерфейс                                         : Встроенный Win32-интерфейс для Win NT/2000
Выходной формат          : Пользовательский кодировщик
Выбранный битрейт        : 128 kBit/s
Качество                 : Высокий
Добавление ID3-тега      : Нет
Утилита сжатия           : C:\Program Files (x86)\Exact Audio Copy\Flac\flac.exe
Дополнительные параметры : -V -8 -T "Date=%year%" -T "Genre=%genre%" %source%
TOC извлечённого CD
     Трек |   Старт  | Длительность | Начальный сектор | Конечный сектор
    ---------------------------------------------------------------------
       1  |  0:00.55 |    3:33.65   |          55      |      16094
       2  |  3:34.45 |    4:24.10   |       16095      |      35904
       3  |  7:58.55 |    3:04.67   |       35905      |      49771
       4  | 11:03.47 |    3:39.68   |       49772      |      66264
       5  | 14:43.40 |    3:42.10   |       66265      |      82924
       6  | 18:25.50 |    4:17.65   |       82925      |     102264
       7  | 22:43.40 |    2:32.67   |      102265      |     113731
       8  | 25:16.32 |    3:40.20   |      113732      |     130251
       9  | 28:56.52 |    3:40.03   |      130252      |     146754
      10  | 32:36.55 |    2:54.35   |      146755      |     159839
      11  | 35:31.15 |    3:53.47   |      159840      |     177361
      12  | 39:24.62 |    3:16.70   |      177362      |     192131
      13  | 42:41.57 |    2:41.00   |      192132      |     204206
Характеристики диапазона извлечения и сообщения об ошибках
Выбранный диапазон
     Имя файла E:\Раздачи\TORRNADA-eloychik ®\Иван Кучин - 7 Альбомов [torrnada.me]\1996 - Избранное\Иван Кучин - Избранное.wav
     Пиковый уровень 100.0 %
     Скорость извлечения 1.7 X
     Качество диапазона 99.9 %
     CRC теста 0DB0475B
     CRC копии 0DB0475B
     Копирование... OK
Ошибок не произошло
AccurateRip: сводка
Трек  1  точность не определена (достоверность 2)  [F6BD5A5D], AccurateRip вернул [B8D7F45C]  (AR v2)
Трек  2  точность не определена (достоверность 2)  [5BE161CB], AccurateRip вернул [2655CDC7]  (AR v2)
Трек  3  точность не определена (достоверность 2)  [A689047D], AccurateRip вернул [24F51214]  (AR v2)
Трек  4  точность не определена (достоверность 2)  [4E01ADA5], AccurateRip вернул [01C19C5A]  (AR v2)
Трек  5  точность не определена (достоверность 2)  [85800EDE], AccurateRip вернул [8B2C8E36]  (AR v2)
Трек  6  точность не определена (достоверность 2)  [23E58EA3], AccurateRip вернул [17AD2E65]  (AR v2)
Трек  7  точность не определена (достоверность 2)  [D5A2EB10], AccurateRip вернул [57F21348]  (AR v2)
Трек  8  точность не определена (достоверность 2)  [ECB23D93], AccurateRip вернул [B3EA590D]  (AR v2)
Трек  9  точность не определена (достоверность 2)  [5F6E06CC], AccurateRip вернул [0EF7D34F]  (AR v2)
Трек 10  точность не определена (достоверность 2)  [294513A0], AccurateRip вернул [3CC092A2]  (AR v2)
Трек 11  точность не определена (достоверность 2)  [4EBA8B4F], AccurateRip вернул [4628C0CF]  (AR v2)
Трек 12  точность не определена (достоверность 2)  [6932EC63], AccurateRip вернул [822661B2]  (AR v2)
Трек 13  точность не определена (достоверность 2)  [F7E5E2EA], AccurateRip вернул [59536ED6]  (AR v2)
Ни один трек не прошёл проверки на точность
В вашей базе может быть иной вариант штамповки диска
Конец отчёта
==== Контрольная сумма отчёта B759848DE91121718AB6F001879301744347DE7853F444FAA89B4334E575D41F ====

Cue Sheet (.cue):

REM GENRE Chanson
REM DATE 1996
REM DISCID B80AA20D
REM COMMENT "ExactAudioCopy v1.3"
PERFORMER "Иван Кучин"
TITLE "Избранное"
REM COMPOSER ""
FILE "Иван Кучин - Избранное.flac" WAVE
  TRACK 01 AUDIO
    TITLE "Не уходи"
    PERFORMER "Иван Кучин"
    REM COMPOSER ""
    INDEX 00 00:00:00
    INDEX 01 00:00:55
  TRACK 02 AUDIO
    TITLE "В таверне"
    PERFORMER "Иван Кучин"
    REM COMPOSER ""
    INDEX 00 03:33:10
    INDEX 01 03:34:45
  TRACK 03 AUDIO
    TITLE "Заряженный наган"
    PERFORMER "Иван Кучин"
    REM COMPOSER ""
    INDEX 00 07:57:20
    INDEX 01 07:58:55
  TRACK 04 AUDIO
    TITLE "Обыкновенная"
    PERFORMER "Иван Кучин"
    REM COMPOSER ""
    INDEX 00 11:02:13
    INDEX 01 11:03:47
  TRACK 05 AUDIO
    TITLE "Сентиментальный Детектив ч. I"
    PERFORMER "Иван Кучин"
    REM COMPOSER ""
    INDEX 00 14:42:05
    INDEX 01 14:43:40
  TRACK 06 AUDIO
    TITLE "Свидание"
    PERFORMER "Иван Кучин"
    REM COMPOSER ""
    INDEX 00 18:24:15
    INDEX 01 18:25:50
  TRACK 07 AUDIO
    TITLE "Шняга"
    PERFORMER "Иван Кучин"
    REM COMPOSER ""
    INDEX 00 22:42:05
    INDEX 01 22:43:40
  TRACK 08 AUDIO
    TITLE "Судьба-злодейка"
    PERFORMER "Иван Кучин"
    REM COMPOSER ""
    INDEX 00 25:14:73
    INDEX 01 25:16:32
  TRACK 09 AUDIO
    TITLE "Чикаго"
    PERFORMER "Иван Кучин"
    REM COMPOSER ""
    INDEX 00 28:55:18
    INDEX 01 28:56:52
  TRACK 10 AUDIO
    TITLE "Мостик"
    PERFORMER "Иван Кучин"
    REM COMPOSER ""
    INDEX 00 32:35:20
    INDEX 01 32:36:55
  TRACK 11 AUDIO
    TITLE "Последнее письмо"
    PERFORMER "Иван Кучин"
    REM COMPOSER ""
    INDEX 00 35:29:55
    INDEX 01 35:31:15
  TRACK 12 AUDIO
    TITLE "Сон"
    PERFORMER "Иван Кучин"
    REM COMPOSER ""
    INDEX 00 39:23:28
    INDEX 01 39:24:62
  TRACK 13 AUDIO
    TITLE "Босяцкая"
    PERFORMER "Иван Кучин"
    REM COMPOSER ""
    INDEX 00 42:40:23
    INDEX 01 42:41:57

Отчёт auCDtect Task manager:

-----------------------
DON'T MODIFY THIS FILE
-----------------------
PERFORMER: auCDtect Task Manager, ver. 1.6.0 RC1 build 1.6.0.1
Copyright (c) 2008-2010 y-soft. All rights reserved
http://y-soft.org
ANALYZER: auCDtect: CD records authenticity detector, version 0.8.2
Copyright (c) 2004 Oleg Berngardt. All rights reserved.
Copyright (c) 2004 Alexander Djourik. All rights reserved.
FILE: Иван Кучин - Избранное.flac
  Size: 332221034 Hash: 41DFC4347881AB4B17D9781F8F366F7F Accuracy: -m0
  Conclusion: CDDA 100%
  Signature: E30139C2A3D207C2CF24A64DB8DB68BC3EBA7DD7

1997 - Судьба воровская

Издание: Classic Company CC 97014
Продолжительноcть - 00:55:33
Треклиcт:
01. В таверне
02. Жиганская душа
03. Пройдут года
04. Прощай, прощай
05. Судьба воровская
06. Белый лебедь
07. Таволга (3:38)
08. Сентиментальный детектив 2
09. Не уходи
10. Человек в телогрейке
11. Изба
12. Цветет сирень
13. Выкидуха
14. Давай, братан!

Отчёт ЕАС:

Exact Audio Copy V1.0 beta 3 from 29. August 2011
Отчёт EAC об извлечении, выполненном 17. июля 2016, 11:01
Иван Кучин / Судьба воровская
Дисковод: ASUS    DRW-24B3ST   Adapter: 3  ID: 0
Режим чтения                 : Достоверность
Использование точного потока : Да
Отключение кэша аудио        : Да
Использование указателей C2  : Нет
Коррекция смещения при чтении                     : 6
Способность читать области Lead-in и Lead-out     : Нет
Заполнение пропущенных сэмплов тишиной            : Да
Удаление блоков с тишиной в начале и конце        : Нет
При вычислениях CRC использовались нулевые сэмплы : Да
Интерфейс                                         : Встроенный Win32-интерфейс для Win NT/2000
Выходной формат          : Пользовательский кодировщик
Выбранный битрейт        : 128 kBit/s
Качество                 : Высокий
Добавление ID3-тега      : Нет
Утилита сжатия           : C:\Program Files (x86)\Exact Audio Copy\Flac\flac.exe
Дополнительные параметры :  -V -8 -T "Date=%year%" -T "Genre=%genre%" %source%
TOC извлечённого CD
     Трек |   Старт  | Длительность | Начальный сектор | Конечный сектор
    ---------------------------------------------------------------------
       1  |  0:00.00 |    4:21.52   |           0      |      19626
       2  |  4:21.52 |    3:17.13   |       19627      |      34414
       3  |  7:38.65 |    3:43.07   |       34415      |      51146
       4  | 11:21.72 |    4:29.45   |       51147      |      71366
       5  | 15:51.42 |    3:46.63   |       71367      |      88379
       6  | 19:38.30 |    4:28.22   |       88380      |     108501
       7  | 24:06.52 |    3:38.05   |      108502      |     124856
       8  | 27:44.57 |    3:31.20   |      124857      |     140701
       9  | 31:16.02 |    3:32.65   |      140702      |     156666
      10  | 34:48.67 |    5:20.10   |      156667      |     180676
      11  | 40:09.02 |    4:09.28   |      180677      |     199379
      12  | 44:18.30 |    4:12.45   |      199380      |     218324
      13  | 48:31.00 |    2:43.17   |      218325      |     230566
      14  | 51:14.17 |    4:18.38   |      230567      |     249954
Характеристики диапазона извлечения и сообщения об ошибках
Выбранный диапазон
     Имя файла E:\РАЗДАЧИ\TORRNADA-eloychik ®\Иван Кучин [TORRNADA]\1997 - Судьба воровская\Иван Кучин - Судьба воровская.wav
     Пиковый уровень 100.0 %
     Скорость извлечения 6.1 X
     Качество диапазона 100.0 %
     CRC теста 7627CAAE
     CRC копии 7627CAAE
     Копирование... OK
Ошибок не произошло
AccurateRip: сводка
Трек  1  точность не определена (достоверность 1)  [A9B864B6], AccurateRip вернул [7DC5B90B]  (AR v2)
Трек  2  точность не определена (достоверность 1)  [F85641B0], AccurateRip вернул [57ED1381]  (AR v2)
Трек  3  точность не определена (достоверность 1)  [66DFA15E], AccurateRip вернул [222AEF40]  (AR v2)
Трек  4  точность не определена (достоверность 1)  [DC717DB0], AccurateRip вернул [F87AE754]  (AR v2)
Трек  5  точность не определена (достоверность 1)  [78637403], AccurateRip вернул [722529AB]  (AR v2)
Трек  6  точность не определена (достоверность 1)  [0D348DD9], AccurateRip вернул [B33E60B7]  (AR v2)
Трек  7  точность не определена (достоверность 1)  [575AD7DB], AccurateRip вернул [C05B56DD]  (AR v2)
Трек  8  точность не определена (достоверность 1)  [468331CF], AccurateRip вернул [565C307E]  (AR v2)
Трек  9  точность не определена (достоверность 1)  [E65D32FB], AccurateRip вернул [2A9A635C]  (AR v2)
Трек 10  точность не определена (достоверность 1)  [E4B78DC6], AccurateRip вернул [E715CDDF]  (AR v2)
Трек 11  точность не определена (достоверность 1)  [E8F9E1DA], AccurateRip вернул [94C396F3]  (AR v2)
Трек 12  точность не определена (достоверность 1)  [6A3C03A0], AccurateRip вернул [9DC67B7E]  (AR v2)
Трек 13  точность не определена (достоверность 1)  [17D72F41], AccurateRip вернул [5221453C]  (AR v2)
Трек 14  точность не определена (достоверность 1)  [EA27950A], AccurateRip вернул [6D404F08]  (AR v2)
Ни один трек не прошёл проверки на точность
В вашей базе может быть иной вариант штамповки диска
Конец отчёта
==== Контрольная сумма отчёта 67E752890AB9F1EE37282E51649CC8D40161C498426D9DDF6E5C02BB84AB23A4 ====

Cue Sheet (.cue):

REM GENRE Chanson
REM DATE 1997
REM DISCID BF0D040E
REM COMMENT "ExactAudioCopy v1.0b3"
PERFORMER "Иван Кучин"
TITLE "Судьба воровская"
FILE "Иван Кучин - Судьба воровская.flac" WAVE
  TRACK 01 AUDIO
    TITLE "В таверне"
    PERFORMER "Иван Кучин"
    INDEX 01 00:00:00
  TRACK 02 AUDIO
    TITLE "Жиганская душа"
    PERFORMER "Иван Кучин"
    INDEX 00 04:20:18
    INDEX 01 04:21:52
  TRACK 03 AUDIO
    TITLE "Пройдут года"
    PERFORMER "Иван Кучин"
    INDEX 00 07:37:31
    INDEX 01 07:38:65
  TRACK 04 AUDIO
    TITLE "Прощай, прощай"
    PERFORMER "Иван Кучин"
    INDEX 00 11:20:38
    INDEX 01 11:21:72
  TRACK 05 AUDIO
    TITLE "Судьба воровская"
    PERFORMER "Иван Кучин"
    INDEX 00 15:50:08
    INDEX 01 15:51:42
  TRACK 06 AUDIO
    TITLE "Белый лебедь"
    PERFORMER "Иван Кучин"
    INDEX 00 19:36:71
    INDEX 01 19:38:30
  TRACK 07 AUDIO
    TITLE "Таволга"
    PERFORMER "Иван Кучин"
    INDEX 00 24:05:18
    INDEX 01 24:06:52
  TRACK 08 AUDIO
    TITLE "Сентиментальный детектив - 2"
    PERFORMER "Иван Кучин"
    INDEX 00 27:43:23
    INDEX 01 27:44:57
  TRACK 09 AUDIO
    TITLE "Не уходи"
    PERFORMER "Иван Кучин"
    INDEX 00 31:14:43
    INDEX 01 31:16:02
  TRACK 10 AUDIO
    TITLE "Человек в телогрейке"
    PERFORMER "Иван Кучин"
    INDEX 00 34:47:33
    INDEX 01 34:48:67
  TRACK 11 AUDIO
    TITLE "Изба"
    PERFORMER "Иван Кучин"
    INDEX 00 40:07:43
    INDEX 01 40:09:02
  TRACK 12 AUDIO
    TITLE "Цветет сирень"
    PERFORMER "Иван Кучин"
    INDEX 00 44:16:71
    INDEX 01 44:18:30
  TRACK 13 AUDIO
    TITLE "Выкидуха"
    PERFORMER "Иван Кучин"
    INDEX 00 48:29:41
    INDEX 01 48:31:00
  TRACK 14 AUDIO
    TITLE "Давай, братан!"
    PERFORMER "Иван Кучин"
    INDEX 00 51:12:58
    INDEX 01 51:14:17

Отчёт auCDtect Task manager:

-----------------------
DON'T MODIFY THIS FILE
-----------------------
PERFORMER: auCDtect Task Manager, ver. 1.6.0 RC1 build 1.6.0.1
Copyright (c) 2008-2010 y-soft. All rights reserved
http://y-soft.org
ANALYZER: auCDtect: CD records authenticity detector, version 0.8.2
Copyright (c) 2004 Oleg Berngardt. All rights reserved.
Copyright (c) 2004 Alexander Djourik. All rights reserved.
FILE: Иван Кучин - Судьба воровская.flac
  Size: 403021915 Hash: 46ABA31FF7478611A667E56C53EEDBB4 Accuracy: -m0
  Conclusion: CDDA 100%
  Signature: 1299A431A2103D4F780EDEB1F418C47B75896AE5

1998 - Крестовая печать

Издание: Classic Company CD0013-3
Продолжительноcть - 00:52:56
Треклиcт:
01. А на чёрных ресницах
02. Колечко
03. Крестовая печать
04. Рецидивист
05. Обыкновенная
06. Боль
07. До свидания, друг
08. Ах, январь мой
09. Заочница
10. На перроне вокзала
11. Тихий океан
12. Черноокая
13. Хрустальная ваза
14. Матушка

Отчёт ЕАС:

Exact Audio Copy V1.0 beta 3 from 29. August 2011
Отчёт EAC об извлечении, выполненном 17. июля 2016, 10:34
Иван Кучин / Крестовая печать
Дисковод: ASUS    DRW-24B3ST   Adapter: 3  ID: 0
Режим чтения                 : Достоверность
Использование точного потока : Да
Отключение кэша аудио        : Да
Использование указателей C2  : Нет
Коррекция смещения при чтении                     : 6
Способность читать области Lead-in и Lead-out     : Нет
Заполнение пропущенных сэмплов тишиной            : Да
Удаление блоков с тишиной в начале и конце        : Нет
При вычислениях CRC использовались нулевые сэмплы : Да
Интерфейс                                         : Встроенный Win32-интерфейс для Win NT/2000
Выходной формат          : Пользовательский кодировщик
Выбранный битрейт        : 128 kBit/s
Качество                 : Высокий
Добавление ID3-тега      : Нет
Утилита сжатия           : C:\Program Files (x86)\Exact Audio Copy\Flac\flac.exe
Дополнительные параметры :  -V -8 -T "Date=%year%" -T "Genre=%genre%" %source%
TOC извлечённого CD
     Трек |   Старт  | Длительность | Начальный сектор | Конечный сектор
    ---------------------------------------------------------------------
       1  |  0:00.55 |    3:26.08   |          55      |      15512
       2  |  3:26.63 |    3:27.53   |       15513      |      31090
       3  |  6:54.41 |    4:14.27   |       31091      |      50167
       4  | 11:08.68 |    3:35.11   |       50168      |      66303
       5  | 14:44.04 |    3:45.38   |       66304      |      83216
       6  | 18:29.42 |    4:25.64   |       83217      |     103155
       7  | 22:55.31 |    4:05.73   |      103156      |     121603
       8  | 27:01.29 |    2:23.58   |      121604      |     132386
       9  | 29:25.12 |    3:35.04   |      132387      |     148515
      10  | 33:00.16 |    3:37.48   |      148516      |     164838
      11  | 36:37.64 |    3:14.74   |      164839      |     179462
      12  | 39:52.63 |    3:10.07   |      179463      |     193719
      13  | 43:02.70 |    5:38.74   |      193720      |     219143
      14  | 48:41.69 |    4:14.59   |      219144      |     238252
Характеристики диапазона извлечения и сообщения об ошибках
Выбранный диапазон
     Имя файла E:\РАЗДАЧИ\TORRNADA-eloychik ®\Иван Кучин [TORRNADA]\1998 - Крестовая печать\Иван Кучин - Крестовая печать.wav
     Пиковый уровень 98.8 %
     Скорость извлечения 1.8 X
     Качество диапазона 100.0 %
     CRC теста B179E908
     CRC копии B179E908
     Копирование... OK
Ошибок не произошло
AccurateRip: сводка
Трек  1  : извлечено точно (доверие 1)  [52A4A99D]  (AR v2)
Трек  2  : извлечено точно (доверие 1)  [F16F5084]  (AR v2)
Трек  3  : извлечено точно (доверие 1)  [1E5A6362]  (AR v2)
Трек  4  : извлечено точно (доверие 1)  [6006627B]  (AR v2)
Трек  5  : извлечено точно (доверие 1)  [F933272D]  (AR v2)
Трек  6  : извлечено точно (доверие 1)  [7F6CE8DE]  (AR v2)
Трек  7  : извлечено точно (доверие 1)  [DEEB231B]  (AR v2)
Трек  8  : извлечено точно (доверие 1)  [FE18AE50]  (AR v2)
Трек  9  : извлечено точно (доверие 1)  [EBFF523D]  (AR v2)
Трек 10  : извлечено точно (доверие 1)  [0A6952AF]  (AR v2)
Трек 11  : извлечено точно (доверие 1)  [06FDF075]  (AR v2)
Трек 12  : извлечено точно (доверие 1)  [C5CF6CD9]  (AR v2)
Трек 13  : извлечено точно (доверие 1)  [7CC2918F]  (AR v2)
Трек 14  : извлечено точно (доверие 1)  [B3594768]  (AR v2)
Все треки извлечены точно
Конец отчёта
==== Контрольная сумма отчёта 6E11488255DDBE8CCF728F66A1CA915D9AE3D8A97D97BA7A87ADF00BC56F62FB ====

Cue Sheet (.cue):

REM GENRE Chanson
REM DATE 1998
REM DISCID CF0C680E
REM COMMENT "ExactAudioCopy v1.0b3"
PERFORMER "Иван Кучин"
TITLE "Крестовая печать"
FILE "Иван Кучин - Крестовая печать.flac" WAVE
  TRACK 01 AUDIO
    TITLE "А на черных ресницах"
    PERFORMER "Иван Кучин"
    INDEX 00 00:00:00
    INDEX 01 00:00:55
  TRACK 02 AUDIO
    TITLE "Колечко"
    PERFORMER "Иван Кучин"
    INDEX 00 03:25:28
    INDEX 01 03:26:63
  TRACK 03 AUDIO
    TITLE "Крестовая печать"
    PERFORMER "Иван Кучин"
    INDEX 00 06:53:06
    INDEX 01 06:54:41
  TRACK 04 AUDIO
    TITLE "Рецидивист"
    PERFORMER "Иван Кучин"
    INDEX 00 11:07:33
    INDEX 01 11:08:68
  TRACK 05 AUDIO
    TITLE "Обыкновенная"
    PERFORMER "Иван Кучин"
    INDEX 00 14:42:44
    INDEX 01 14:44:04
  TRACK 06 AUDIO
    TITLE "Боль"
    PERFORMER "Иван Кучин"
    INDEX 00 18:28:07
    INDEX 01 18:29:42
  TRACK 07 AUDIO
    TITLE "До свидания, друг"
    PERFORMER "Иван Кучин"
    INDEX 00 22:53:71
    INDEX 01 22:55:31
  TRACK 08 AUDIO
    TITLE "Ах, январь мой"
    PERFORMER "Иван Кучин"
    INDEX 00 26:59:69
    INDEX 01 27:01:29
  TRACK 09 AUDIO
    TITLE "Заочница"
    PERFORMER "Иван Кучин"
    INDEX 00 29:23:52
    INDEX 01 29:25:12
  TRACK 10 AUDIO
    TITLE "На перроне вокзала"
    PERFORMER "Иван Кучин"
    INDEX 00 32:58:56
    INDEX 01 33:00:16
  TRACK 11 AUDIO
    TITLE "Тихий океан"
    PERFORMER "Иван Кучин"
    INDEX 00 36:36:29
    INDEX 01 36:37:64
  TRACK 12 AUDIO
    TITLE "Черноокая"
    PERFORMER "Иван Кучин"
    INDEX 00 39:51:28
    INDEX 01 39:52:63
  TRACK 13 AUDIO
    TITLE "Хрустальная ваза"
    PERFORMER "Иван Кучин"
    INDEX 00 43:01:35
    INDEX 01 43:02:70
  TRACK 14 AUDIO
    TITLE "Матушка"
    PERFORMER "Иван Кучин"
    INDEX 00 48:40:34
    INDEX 01 48:41:69

Отчёт auCDtect Task manager:

-----------------------
DON'T MODIFY THIS FILE
-----------------------
PERFORMER: auCDtect Task Manager, ver. 1.6.0 RC1 build 1.6.0.1
Copyright (c) 2008-2010 y-soft. All rights reserved
http://y-soft.org
ANALYZER: auCDtect: CD records authenticity detector, version 0.8.2
Copyright (c) 2004 Oleg Berngardt. All rights reserved.
Copyright (c) 2004 Alexander Djourik. All rights reserved.
FILE: Иван Кучин - Крестовая печать.flac
  Size: 375023582 Hash: 4EE3D5CFD4B0DF85AF333AF4A8459FDA Accuracy: -m0
  Conclusion: CDDA 100%
  Signature: DED9963B1A5A5FE51ECBA0D7311B45A03A8CB657

1999 - Возвращение домой (оригинальная запись1987г.)

Издание: SCNG11C 01081
Продолжительность - 01:01:14
Треклист:
01. Возвращение домой
02. А раньше...
03. Старшина
04. Как Ромео и Джульета
05. Чига
06. Земляк
07. Будет всё в ажуре
08. Хрустальная ваза
09. Милая родная моя мама
10. Дело было вечером
11. Верните мужинька

Отчёт ЕАС:

Exact Audio Copy V1.3 from 2. September 2016
Отчёт EAC об извлечении, выполненном 28. ноября 2017, 19:00
Иван Кучин  / Возвращение домой ((оригинальная запись1987г.)
Дисковод: ASUS    DRW-24D5MT   Adapter: 1  ID: 0
Режим чтения                 : Достоверность
Использование точного потока : Да
Отключение кэша аудио        : Да
Использование указателей C2  : Нет
Коррекция смещения при чтении                     : 6
Способность читать области Lead-in и Lead-out     : Нет
Заполнение пропущенных сэмплов тишиной            : Да
Удаление блоков с тишиной в начале и конце        : Нет
При вычислениях CRC использовались нулевые сэмплы : Да
Интерфейс                                         : Встроенный Win32-интерфейс для Win NT/2000
Выходной формат          : Пользовательский кодировщик
Выбранный битрейт        : 128 kBit/s
Качество                 : Высокий
Добавление ID3-тега      : Нет
Утилита сжатия           : C:\Program Files (x86)\Exact Audio Copy\Flac\flac.exe
Дополнительные параметры : -V -8 -T "Date=%year%" -T "Genre=%genre%" %source%
TOC извлечённого CD
     Трек |   Старт  | Длительность | Начальный сектор | Конечный сектор
    ---------------------------------------------------------------------
       1  |  0:00.00 |    5:47.07   |           0      |      26031
       2  |  5:47.07 |    5:10.57   |       26032      |      49338
       3  | 10:57.64 |    5:38.33   |       49339      |      74721
       4  | 16:36.22 |    5:22.19   |       74722      |      98890
       5  | 21:58.41 |    6:21.73   |       98891      |     127538
       6  | 28:20.39 |    8:26.43   |      127539      |     165531
       7  | 36:47.07 |    7:59.73   |      165532      |     201529
       8  | 44:47.05 |    9:02.57   |      201530      |     242236
       9  | 53:49.62 |    5:36.04   |      242237      |     267440
      10  | 59:25.66 |    8:36.30   |      267441      |     306170
      11  | 68:02.21 |    2:46.22   |      306171      |     318642
Характеристики диапазона извлечения и сообщения об ошибках
Выбранный диапазон
     Имя файла E:\Раздачи\TORRNADA-eloychik ®\Иван Кучин - 5 Альбомов [torrnada.me]\1999 - Возвращение домой (оригинальная запись1987г.)\Иван Кучин  - Возвращение домой ((оригинальная запись1987г.).wav
     Пиковый уровень 100.0 %
     Скорость извлечения 7.8 X
     Качество диапазона 100.0 %
     CRC теста 7A3A31C2
     CRC копии 7A3A31C2
     Копирование... OK
Ошибок не произошло
AccurateRip: сводка
Трек  1  отсутствует в базе данных
Трек  2  отсутствует в базе данных
Трек  3  отсутствует в базе данных
Трек  4  отсутствует в базе данных
Трек  5  отсутствует в базе данных
Трек  6  отсутствует в базе данных
Трек  7  отсутствует в базе данных
Трек  8  отсутствует в базе данных
Трек  9  отсутствует в базе данных
Трек 10  отсутствует в базе данных
Трек 11  отсутствует в базе данных
Ни одного трека нет в базе AccurateRip
Конец отчёта
==== Контрольная сумма отчёта 260E900C8B07814EB055C964959FC0A6B668A4E3813EFAA796AE78BB0A073A5F ====

Cue Sheet (.cue):

REM GENRE Chanson
REM DATE 1999
REM DISCID A410980B
REM COMMENT "ExactAudioCopy v1.3"
PERFORMER "Иван Кучин "
TITLE "Возвращение домой ((оригинальная запись1987г.)"
REM COMPOSER ""
FILE "Иван Кучин  - Возвращение домой ((оригинальная запись1987г.).flac" WAVE
  TRACK 01 AUDIO
    TITLE "Возвращение домой"
    PERFORMER "Иван Кучин "
    REM COMPOSER ""
    INDEX 01 00:00:00
  TRACK 02 AUDIO
    TITLE "А раньше..."
    PERFORMER "Иван Кучин "
    REM COMPOSER ""
    INDEX 00 05:45:08
    INDEX 01 05:47:07
  TRACK 03 AUDIO
    TITLE "Старшина"
    PERFORMER "Иван Кучин "
    REM COMPOSER ""
    INDEX 00 10:55:65
    INDEX 01 10:57:64
  TRACK 04 AUDIO
    TITLE "Как Ромео и Джульета"
    PERFORMER "Иван Кучин "
    REM COMPOSER ""
    INDEX 00 16:34:23
    INDEX 01 16:36:22
  TRACK 05 AUDIO
    TITLE "Чига"
    PERFORMER "Иван Кучин "
    REM COMPOSER ""
    INDEX 00 21:56:42
    INDEX 01 21:58:41
  TRACK 06 AUDIO
    TITLE "Зеемляк"
    PERFORMER "Иван Кучин "
    REM COMPOSER ""
    INDEX 00 28:18:40
    INDEX 01 28:20:39
  TRACK 07 AUDIO
    TITLE "Будет все в ажуре"
    PERFORMER "Иван Кучин "
    REM COMPOSER ""
    INDEX 00 36:45:08
    INDEX 01 36:47:07
  TRACK 08 AUDIO
    TITLE "Хрустальная ваза"
    PERFORMER "Иван Кучин "
    REM COMPOSER ""
    INDEX 00 44:45:06
    INDEX 01 44:47:05
  TRACK 09 AUDIO
    TITLE "Милая родная моя мама"
    PERFORMER "Иван Кучин "
    REM COMPOSER ""
    INDEX 00 53:47:63
    INDEX 01 53:49:62
  TRACK 10 AUDIO
    TITLE "Дело было вечером"
    PERFORMER "Иван Кучин "
    REM COMPOSER ""
    INDEX 00 59:23:67
    INDEX 01 59:25:66
  TRACK 11 AUDIO
    TITLE "Верните мужинька"
    PERFORMER "Иван Кучин "
    REM COMPOSER ""
    INDEX 00 68:00:22
    INDEX 01 68:02:21

Отчёт auCDtect Task manager:

-----------------------
DON'T MODIFY THIS FILE
-----------------------
PERFORMER: auCDtect Task Manager, ver. 1.6.0 RC1 build 1.6.0.1
Copyright (c) 2008-2010 y-soft. All rights reserved
http://y-soft.org
ANALYZER: auCDtect: CD records authenticity detector, version 0.8.2
Copyright (c) 2004 Oleg Berngardt. All rights reserved.
Copyright (c) 2004 Alexander Djourik. All rights reserved.
FILE: Иван Кучин  - Возвращение домой ((оригинальная запись1987г.).flac
  Size: 467041873 Hash: 96B6F8863635AC1A3FC4E9AFCF53022A Accuracy: -m0
  Conclusion: MPEG 95%
  Signature: FC33B0B0A5A06C9E174DF62C9F50A982ACA2C33F

Спектрограмма:

2001 - Царь-батюшка

Издание: Classic Company CC CD 067/01
Продолжительность - 00:52:08
Треклист:
01. Багульник
02. Фотокарточка
03. Родные места
04. Барыня
05. Спящий зверь
06. Сентиментальный детектив ч. 3
07. Черный ворон
08. Декабрьский друг
09. Гимназисточка
10. Конь вороной
11. Царь-батюшка
12. Вожатая
13. Ностальгия
14. Русь советская

Отчёт ЕАС:

Exact Audio Copy V1.3 from 2. September 2016
Отчёт EAC об извлечении, выполненном 30. декабря 2017, 14:07
Иван Кучин  / Царь-батюшка
Дисковод: ASUS    DRW-24D5MT   Adapter: 1  ID: 0
Режим чтения                 : Достоверность
Использование точного потока : Да
Отключение кэша аудио        : Да
Использование указателей C2  : Нет
Коррекция смещения при чтении                     : 6
Способность читать области Lead-in и Lead-out     : Нет
Заполнение пропущенных сэмплов тишиной            : Да
Удаление блоков с тишиной в начале и конце        : Нет
При вычислениях CRC использовались нулевые сэмплы : Да
Интерфейс                                         : Встроенный Win32-интерфейс для Win NT/2000
Выходной формат          : Пользовательский кодировщик
Выбранный битрейт        : 128 kBit/s
Качество                 : Высокий
Добавление ID3-тега      : Нет
Утилита сжатия           : C:\Program Files (x86)\Exact Audio Copy\Flac\flac.exe
Дополнительные параметры : -V -8 -T "Date=%year%" -T "Genre=%genre%" %source%
TOC извлечённого CD
     Трек |   Старт  | Длительность | Начальный сектор | Конечный сектор
    ---------------------------------------------------------------------
       1  |  0:00.00 |    3:46.03   |           0      |      16952
       2  |  3:46.03 |    3:45.31   |       16953      |      33858
       3  |  7:31.34 |    3:27.72   |       33859      |      49455
       4  | 10:59.31 |    3:47.14   |       49456      |      66494
       5  | 14:46.45 |    3:48.07   |       66495      |      83601
       6  | 18:34.52 |    3:50.30   |       83602      |     100881
       7  | 22:25.07 |    3:40.68   |      100882      |     117449
       8  | 26:06.00 |    4:03.46   |      117450      |     135720
       9  | 30:09.46 |    3:53.74   |      135721      |     153269
      10  | 34:03.45 |    3:33.07   |      153270      |     169251
      11  | 37:36.52 |    3:56.06   |      169252      |     186957
      12  | 41:32.58 |    4:09.49   |      186958      |     205681
      13  | 45:42.32 |    3:27.68   |      205682      |     221274
      14  | 49:10.25 |    2:57.31   |      221275      |     234580
Характеристики диапазона извлечения и сообщения об ошибках
Выбранный диапазон
     Имя файла E:\Раздачи\TORRNADA-eloychik ®\Иван Кучин - 9 Альбомов [torrnada.me]\2001 - Царь-батюшка\Иван Кучин  - Царь-батюшка.wav
     Пиковый уровень 98.8 %
     Скорость извлечения 7.6 X
     Качество диапазона 100.0 %
     CRC теста 3EC4C0C5
     CRC копии 3EC4C0C5
     Копирование... OK
Ошибок не произошло
AccurateRip: сводка
Трек  1  : извлечено точно (доверие 1)  [2DCA68CF]  (AR v1)
Трек  2  : извлечено точно (доверие 1)  [51984F10]  (AR v1)
Трек  3  : извлечено точно (доверие 1)  [94B7D981]  (AR v1)
Трек  4  : извлечено точно (доверие 1)  [E2F1D9EF]  (AR v1)
Трек  5  : извлечено точно (доверие 1)  [66796AAF]  (AR v1)
Трек  6  : извлечено точно (доверие 1)  [38BB39BA]  (AR v1)
Трек  7  : извлечено точно (доверие 1)  [9D5722BC]  (AR v1)
Трек  8  : извлечено точно (доверие 1)  [56806C3B]  (AR v1)
Трек  9  : извлечено точно (доверие 1)  [8FF9D05F]  (AR v1)
Трек 10  : извлечено точно (доверие 1)  [C6371C03]  (AR v1)
Трек 11  : извлечено точно (доверие 1)  [3A4529D2]  (AR v1)
Трек 12  : извлечено точно (доверие 1)  [B8E0AAF8]  (AR v1)
Трек 13  : извлечено точно (доверие 1)  [9410C2A6]  (AR v1)
Трек 14  : извлечено точно (доверие 1)  [E9DDD5B3]  (AR v1)
Все треки извлечены точно
Конец отчёта
==== Контрольная сумма отчёта 6515ED05173113F840AB7952218FD4284681C3F2D62269A84A7271CBADB1A523 ====

Cue Sheet (.cue):

REM GENRE Chanson
REM DATE 2001
REM DISCID C80C370E
REM COMMENT "ExactAudioCopy v1.3"
PERFORMER "Иван Кучин "
TITLE "Царь-батюшка"
REM COMPOSER ""
FILE "Иван Кучин  - Царь-батюшка.flac" WAVE
  TRACK 01 AUDIO
    TITLE "Багульник"
    PERFORMER "Иван Кучин "
    REM COMPOSER ""
    INDEX 01 00:00:00
  TRACK 02 AUDIO
    TITLE "Фотокарточка"
    PERFORMER "Иван Кучин "
    REM COMPOSER ""
    INDEX 01 03:46:03
  TRACK 03 AUDIO
    TITLE "Родные места"
    PERFORMER "Иван Кучин "
    REM COMPOSER ""
    INDEX 01 07:31:34
  TRACK 04 AUDIO
    TITLE "Барыня"
    PERFORMER "Иван Кучин "
    REM COMPOSER ""
    INDEX 01 10:59:31
  TRACK 05 AUDIO
    TITLE "Спящий зверь"
    PERFORMER "Иван Кучин "
    REM COMPOSER ""
    INDEX 01 14:46:45
  TRACK 06 AUDIO
    TITLE "Сентиментальный детектив ч. 3 "
    PERFORMER "Иван Кучин "
    REM COMPOSER ""
    INDEX 01 18:34:52
  TRACK 07 AUDIO
    TITLE "Черный ворон"
    PERFORMER "Иван Кучин "
    REM COMPOSER ""
    INDEX 01 22:25:07
  TRACK 08 AUDIO
    TITLE "Декабрьский друг"
    PERFORMER "Иван Кучин "
    REM COMPOSER ""
    INDEX 01 26:06:00
  TRACK 09 AUDIO
    TITLE "Гимназисточка"
    PERFORMER "Иван Кучин "
    REM COMPOSER ""
    INDEX 01 30:09:46
  TRACK 10 AUDIO
    TITLE "Конь вороной"
    PERFORMER "Иван Кучин "
    REM COMPOSER ""
    INDEX 01 34:03:45
  TRACK 11 AUDIO
    TITLE "Царь-батюшка"
    PERFORMER "Иван Кучин "
    REM COMPOSER ""
    INDEX 01 37:36:52
  TRACK 12 AUDIO
    TITLE "Вожатая"
    PERFORMER "Иван Кучин "
    REM COMPOSER ""
    INDEX 01 41:32:58
  TRACK 13 AUDIO
    TITLE "Ностальгия"
    PERFORMER "Иван Кучин "
    REM COMPOSER ""
    INDEX 01 45:42:32
  TRACK 14 AUDIO
    TITLE "Русь советская"
    PERFORMER "Иван Кучин "
    REM COMPOSER ""
    INDEX 01 49:10:25

Отчёт auCDtect Task manager:

-----------------------
DON'T MODIFY THIS FILE
-----------------------
PERFORMER: auCDtect Task Manager, ver. 1.6.0 RC1 build 1.6.0.1
Copyright (c) 2008-2010 y-soft. All rights reserved
http://y-soft.org
ANALYZER: auCDtect: CD records authenticity detector, version 0.8.2
Copyright (c) 2004 Oleg Berngardt. All rights reserved.
Copyright (c) 2004 Alexander Djourik. All rights reserved.
FILE: Иван Кучин  - Царь-батюшка.flac
  Size: 341237325 Hash: 1ABABCC65CFB63FA4643040F8B60E28D Accuracy: -m0
  Conclusion: CDDA 100%
  Signature: D940E8D7EC6F57C65AC45B2C07A722538184D3C9

2001 - Человек в телогрейке

Издание: Classic Company CC-CD-066/01
Продолжительность - 01:19:13
Треклист:
01. Человек в телогрейке
02. Белый лебедь
03. Пройдут года
04. Жиганская душа
05. Судьба воровская
06. Крестовая печать
07. Обыкновенная
08. Изба
09. Не уходи
10. Колечко
11. В таверне
12. Заочница
13. Цветет сирень
14. Багульник
15. Родные места
16. На перроне вокзала
17. Хрустальная ваза
18. Сентиментальный детектив-часть 1
19. Сентиментальный детектив-часть 2
20. Сентиментальный детектив-часть 3

Отчёт ЕАС:

Exact Audio Copy V1.3 from 2. September 2016
Отчёт EAC об извлечении, выполненном 13. марта 2018, 12:00
Иван Кучин / Человек в телогрейке
Дисковод: ASUS    DRW-24D5MT   Adapter: 1  ID: 0
Режим чтения                 : Достоверность
Использование точного потока : Да
Отключение кэша аудио        : Да
Использование указателей C2  : Нет
Коррекция смещения при чтении                     : 6
Способность читать области Lead-in и Lead-out     : Нет
Заполнение пропущенных сэмплов тишиной            : Да
Удаление блоков с тишиной в начале и конце        : Нет
При вычислениях CRC использовались нулевые сэмплы : Да
Интерфейс                                         : Встроенный Win32-интерфейс для Win NT/2000
Выходной формат          : Пользовательский кодировщик
Выбранный битрейт        : 128 kBit/s
Качество                 : Высокий
Добавление ID3-тега      : Нет
Утилита сжатия           : C:\Program Files (x86)\Exact Audio Copy\Flac\flac.exe
Дополнительные параметры : -V -8 -T "Date=%year%" -T "Genre=%genre%" %source%
TOC извлечённого CD
     Трек |   Старт  | Длительность | Начальный сектор | Конечный сектор
    ---------------------------------------------------------------------
       1  |  0:00.00 |    5:20.43   |           0      |      24042
       2  |  5:20.43 |    4:28.30   |       24043      |      44172
       3  |  9:48.73 |    3:42.37   |       44173      |      60859
       4  | 13:31.35 |    3:17.20   |       60860      |      75654
       5  | 16:48.55 |    3:46.71   |       75655      |      92675
       6  | 20:35.51 |    4:14.04   |       92676      |     111729
       7  | 24:49.55 |    3:44.57   |      111730      |     128586
       8  | 28:34.37 |    4:09.34   |      128587      |     147295
       9  | 32:43.71 |    3:32.73   |      147296      |     163268
      10  | 36:16.69 |    3:27.33   |      163269      |     178826
      11  | 39:44.27 |    4:21.61   |      178827      |     198462
      12  | 44:06.13 |    3:34.63   |      198463      |     214575
      13  | 47:41.01 |    4:12.55   |      214576      |     233530
      14  | 51:53.56 |    3:47.43   |      233531      |     250598
      15  | 55:41.24 |    3:30.04   |      250599      |     266352
      16  | 59:11.28 |    3:34.71   |      266353      |     282473
      17  | 62:46.24 |    5:38.63   |      282474      |     307886
      18  | 68:25.12 |    3:29.25   |      307887      |     323586
      19  | 71:54.37 |    3:29.16   |      323587      |     339277
      20  | 75:23.53 |    3:49.29   |      339278      |     356481
Характеристики диапазона извлечения и сообщения об ошибках
Выбранный диапазон
     Имя файла E:\Раздачи\TORRNADA-eloychik ®\Иван Кучин - 10 Альбомов [torrnada.ME]\2001 - Человек в телогрейке\Иван Кучин - Человек в телогрейке.wav
     Пиковый уровень 100.0 %
     Скорость извлечения 3.6 X
     Качество диапазона 100.0 %
     CRC теста 946A256D
     CRC копии 946A256D
     Копирование... OK
Ошибок не произошло
AccurateRip: сводка
Трек  1  отсутствует в базе данных
Трек  2  отсутствует в базе данных
Трек  3  отсутствует в базе данных
Трек  4  отсутствует в базе данных
Трек  5  отсутствует в базе данных
Трек  6  отсутствует в базе данных
Трек  7  отсутствует в базе данных
Трек  8  отсутствует в базе данных
Трек  9  отсутствует в базе данных
Трек 10  отсутствует в базе данных
Трек 11  отсутствует в базе данных
Трек 12  отсутствует в базе данных
Трек 13  отсутствует в базе данных
Трек 14  отсутствует в базе данных
Трек 15  отсутствует в базе данных
Трек 16  отсутствует в базе данных
Трек 17  отсутствует в базе данных
Трек 18  отсутствует в базе данных
Трек 19  отсутствует в базе данных
Трек 20  отсутствует в базе данных
Ни одного трека нет в базе AccurateRip
Конец отчёта
==== Контрольная сумма отчёта D636046EB42676B87C3F3F4380C9B35D71F3AA3A30A8113864E4FCA2052CA710 ====

Cue Sheet (.cue):

REM GENRE Chanson
REM DATE 2001
REM DISCID 1B129114
REM COMMENT "ExactAudioCopy v1.3"
PERFORMER "Иван Кучин"
TITLE "Человек в телогрейке"
REM COMPOSER ""
FILE "Иван Кучин - Человек в телогрейке.flac" WAVE
  TRACK 01 AUDIO
    TITLE "Человек в телогрейке"
    PERFORMER "Иван Кучин"
    REM COMPOSER ""
    INDEX 01 00:00:00
  TRACK 02 AUDIO
    TITLE "Белый лебедь"
    PERFORMER "Иван Кучин"
    REM COMPOSER ""
    INDEX 01 05:20:43
  TRACK 03 AUDIO
    TITLE "Пройдут года"
    PERFORMER "Иван Кучин"
    REM COMPOSER ""
    INDEX 01 09:48:73
  TRACK 04 AUDIO
    TITLE "Жиганская душа"
    PERFORMER "Иван Кучин"
    REM COMPOSER ""
    INDEX 01 13:31:35
  TRACK 05 AUDIO
    TITLE "Судьба воровская"
    PERFORMER "Иван Кучин"
    REM COMPOSER ""
    INDEX 01 16:48:55
  TRACK 06 AUDIO
    TITLE "Крестовая печать"
    PERFORMER "Иван Кучин"
    REM COMPOSER ""
    INDEX 01 20:35:51
  TRACK 07 AUDIO
    TITLE "Обыкновенная"
    PERFORMER "Иван Кучин"
    REM COMPOSER ""
    INDEX 01 24:49:55
  TRACK 08 AUDIO
    TITLE "Изба"
    PERFORMER "Иван Кучин"
    REM COMPOSER ""
    INDEX 01 28:34:37
  TRACK 09 AUDIO
    TITLE "Не уходи"
    PERFORMER "Иван Кучин"
    REM COMPOSER ""
    INDEX 01 32:43:71
  TRACK 10 AUDIO
    TITLE "Колечко"
    PERFORMER "Иван Кучин"
    REM COMPOSER ""
    INDEX 01 36:16:69
  TRACK 11 AUDIO
    TITLE "В таверне"
    PERFORMER "Иван Кучин"
    REM COMPOSER ""
    INDEX 01 39:44:27
  TRACK 12 AUDIO
    TITLE "Заочница"
    PERFORMER "Иван Кучин"
    REM COMPOSER ""
    INDEX 01 44:06:13
  TRACK 13 AUDIO
    TITLE "Цветет сирень"
    PERFORMER "Иван Кучин"
    REM COMPOSER ""
    INDEX 01 47:41:01
  TRACK 14 AUDIO
    TITLE "Багульник"
    PERFORMER "Иван Кучин"
    REM COMPOSER ""
    INDEX 01 51:53:56
  TRACK 15 AUDIO
    TITLE "Родные места"
    PERFORMER "Иван Кучин"
    REM COMPOSER ""
    INDEX 01 55:41:24
  TRACK 16 AUDIO
    TITLE "На перроне вокзала"
    PERFORMER "Иван Кучин"
    REM COMPOSER ""
    INDEX 01 59:11:28
  TRACK 17 AUDIO
    TITLE "Хрустальная ваза"
    PERFORMER "Иван Кучин"
    REM COMPOSER ""
    INDEX 01 62:46:24
  TRACK 18 AUDIO
    TITLE "Сентиментальный детектив (Часть I)"
    PERFORMER "Иван Кучин"
    REM COMPOSER ""
    INDEX 01 68:25:12
  TRACK 19 AUDIO
    TITLE "Сентиментальный детектив (Часть II)"
    PERFORMER "Иван Кучин"
    REM COMPOSER ""
    INDEX 01 71:54:37
  TRACK 20 AUDIO
    TITLE "Сентиментальный детектив (Часть III)"
    PERFORMER "Иван Кучин"
    REM COMPOSER ""
    INDEX 01 75:23:53

Отчёт auCDtect Task manager:

-----------------------
DON'T MODIFY THIS FILE
-----------------------
PERFORMER: auCDtect Task Manager, ver. 1.6.0 RC1 build 1.6.0.1
Copyright (c) 2008-2010 y-soft. All rights reserved
http://y-soft.org
ANALYZER: auCDtect: CD records authenticity detector, version 0.8.2
Copyright (c) 2004 Oleg Berngardt. All rights reserved.
Copyright (c) 2004 Alexander Djourik. All rights reserved.
FILE: Иван Кучин - Человек в телогрейке.flac
  Size: 566904970 Hash: E98DF53ACD8C336D4E53A44BF6AC3FB1 Accuracy: -m0
  Conclusion: CDDA 100%
  Signature: CB6EE97E987FEB08550B301323EA6A400DD9E8DC

2003 - У дороги рябина

Издание: CC CD 03/53
Продолжительность - 00:49:29
Треклист:
01. У дороги рябина
02. Пой, гитара
03. Натаха
04. Рыжая
05. Вор и судья
06. Свидание
07. Бэби
08. Сентиментальный детектив (часть I)
09. Подруга по жизни
10. Запретная зона
11. Мостик
12. Судьба злодейка
13. Нищенка
14. Последнее письмо

Отчёт ЕАС:

Exact Audio Copy V1.3 from 2. September 2016
Отчёт EAC об извлечении, выполненном 6. декабря 2017, 13:45
Иван Кучин / У дороги рябина
Дисковод: ASUS    DRW-24D5MT   Adapter: 1  ID: 0
Режим чтения                 : Достоверность
Использование точного потока : Да
Отключение кэша аудио        : Да
Использование указателей C2  : Нет
Коррекция смещения при чтении                     : 6
Способность читать области Lead-in и Lead-out     : Нет
Заполнение пропущенных сэмплов тишиной            : Да
Удаление блоков с тишиной в начале и конце        : Нет
При вычислениях CRC использовались нулевые сэмплы : Да
Интерфейс                                         : Встроенный Win32-интерфейс для Win NT/2000
Выходной формат          : Пользовательский кодировщик
Выбранный битрейт        : 128 kBit/s
Качество                 : Высокий
Добавление ID3-тега      : Нет
Утилита сжатия           : C:\Program Files (x86)\Exact Audio Copy\Flac\flac.exe
Дополнительные параметры : -V -8 -T "Date=%year%" -T "Genre=%genre%" %source%
TOC извлечённого CD
     Трек |   Старт  | Длительность | Начальный сектор | Конечный сектор
    ---------------------------------------------------------------------
       1  |  0:00.00 |    4:46.00   |           0      |      21449
       2  |  4:46.00 |    3:22.60   |       21450      |      36659
       3  |  8:08.60 |    3:12.23   |       36660      |      51082
       4  | 11:21.08 |    3:26.52   |       51083      |      66584
       5  | 14:47.60 |    4:19.54   |       66585      |      86063
       6  | 19:07.39 |    3:08.35   |       86064      |     100198
       7  | 22:15.74 |    2:35.01   |      100199      |     111824
       8  | 24:51.00 |    3:34.14   |      111825      |     127888
       9  | 28:25.14 |    3:47.32   |      127889      |     144945
      10  | 32:12.46 |    3:42.00   |      144946      |     161595
      11  | 35:54.46 |    2:53.24   |      161596      |     174594
      12  | 38:47.70 |    3:44.50   |      174595      |     191444
      13  | 42:32.45 |    3:10.00   |      191445      |     205694
      14  | 45:42.45 |    3:46.16   |      205695      |     222660
Характеристики диапазона извлечения и сообщения об ошибках
Выбранный диапазон
     Имя файла E:\Раздачи\TORRNADA-eloychik ®\Иван Кучин - 5 Альбомов [torrnada.me]\2003 - У дороги рябина\Иван Кучин - У дороги рябина.wav
     Пиковый уровень 89.1 %
     Скорость извлечения 6.8 X
     Качество диапазона 100.0 %
     CRC теста 22F96031
     CRC копии 22F96031
     Копирование... OK
Ошибок не произошло
AccurateRip: сводка
Трек  1  : извлечено точно (доверие 1)  [0A905DF1]  (AR v2)
Трек  2  : извлечено точно (доверие 1)  [A8542E21]  (AR v2)
Трек  3  : извлечено точно (доверие 1)  [148B9D4C]  (AR v2)
Трек  4  : извлечено точно (доверие 1)  [EA50272C]  (AR v2)
Трек  5  : извлечено точно (доверие 1)  [F5D9B500]  (AR v2)
Трек  6  : извлечено точно (доверие 1)  [C119352C]  (AR v2)
Трек  7  : извлечено точно (доверие 1)  [FE6BC482]  (AR v2)
Трек  8  : извлечено точно (доверие 1)  [75740E35]  (AR v2)
Трек  9  : извлечено точно (доверие 1)  [AEB0394D]  (AR v2)
Трек 10  : извлечено точно (доверие 1)  [76E0F20C]  (AR v2)
Трек 11  : извлечено точно (доверие 1)  [86F73153]  (AR v2)
Трек 12  : извлечено точно (доверие 1)  [0FE680FB]  (AR v2)
Трек 13  : извлечено точно (доверие 1)  [818E9D21]  (AR v2)
Трек 14  : извлечено точно (доверие 1)  [A1879B7D]  (AR v2)
Все треки извлечены точно
Конец отчёта
==== Контрольная сумма отчёта 70962F622546C223A8E8A15BBDF965B9C9E40B3C66CE44795BE2F9A2589B411A ====

Cue Sheet (.cue):

REM GENRE Chanson
REM DATE 2003
REM DISCID D80B980E
REM COMMENT "ExactAudioCopy v1.3"
PERFORMER "Иван Кучин"
TITLE "У дороги рябина"
REM COMPOSER ""
FILE "Иван Кучин - У дороги рябина.flac" WAVE
  TRACK 01 AUDIO
    TITLE "У дороги рябина"
    PERFORMER "Иван Кучин"
    REM COMPOSER ""
    INDEX 01 00:00:00
  TRACK 02 AUDIO
    TITLE "Пой, гитара"
    PERFORMER "Иван Кучин"
    REM COMPOSER ""
    INDEX 00 04:44:18
    INDEX 01 04:46:00
  TRACK 03 AUDIO
    TITLE "Натаха"
    PERFORMER "Иван Кучин"
    REM COMPOSER ""
    INDEX 00 08:07:03
    INDEX 01 08:08:60
  TRACK 04 AUDIO
    TITLE "Рыжая"
    PERFORMER "Иван Кучин"
    REM COMPOSER ""
    INDEX 00 11:19:26
    INDEX 01 11:21:08
  TRACK 05 AUDIO
    TITLE "Вор и судья"
    PERFORMER "Иван Кучин"
    REM COMPOSER ""
    INDEX 00 14:46:03
    INDEX 01 14:47:60
  TRACK 06 AUDIO
    TITLE "Свидание"
    PERFORMER "Иван Кучин"
    REM COMPOSER ""
    INDEX 00 19:05:57
    INDEX 01 19:07:39
  TRACK 07 AUDIO
    TITLE "Бэби"
    PERFORMER "Иван Кучин"
    REM COMPOSER ""
    INDEX 00 22:14:17
    INDEX 01 22:15:74
  TRACK 08 AUDIO
    TITLE "Сентиментальный детектив (часть I)"
    PERFORMER "Иван Кучин"
    REM COMPOSER ""
    INDEX 00 24:49:18
    INDEX 01 24:51:00
  TRACK 09 AUDIO
    TITLE "Подруга по жизни"
    PERFORMER "Иван Кучин"
    REM COMPOSER ""
    INDEX 00 28:23:32
    INDEX 01 28:25:14
  TRACK 10 AUDIO
    TITLE "Запретная зона"
    PERFORMER "Иван Кучин"
    REM COMPOSER ""
    INDEX 00 32:10:64
    INDEX 01 32:12:46
  TRACK 11 AUDIO
    TITLE "Мостик"
    PERFORMER "Иван Кучин"
    REM COMPOSER ""
    INDEX 00 35:52:64
    INDEX 01 35:54:46
  TRACK 12 AUDIO
    TITLE "Судьба злодейка"
    PERFORMER "Иван Кучин"
    REM COMPOSER ""
    INDEX 00 38:46:13
    INDEX 01 38:47:70
  TRACK 13 AUDIO
    TITLE "Нищенка"
    PERFORMER "Иван Кучин"
    REM COMPOSER ""
    INDEX 00 42:30:63
    INDEX 01 42:32:45
  TRACK 14 AUDIO
    TITLE "Последнее письмо"
    PERFORMER "Иван Кучин"
    REM COMPOSER ""
    INDEX 00 45:40:63
    INDEX 01 45:42:45

Отчёт auCDtect Task manager:

-----------------------
DON'T MODIFY THIS FILE
-----------------------
PERFORMER: auCDtect Task Manager, ver. 1.6.0 RC1 build 1.6.0.1
Copyright (c) 2008-2010 y-soft. All rights reserved
http://y-soft.org
ANALYZER: auCDtect: CD records authenticity detector, version 0.8.2
Copyright (c) 2004 Oleg Berngardt. All rights reserved.
Copyright (c) 2004 Alexander Djourik. All rights reserved.
FILE: Иван Кучин - У дороги рябина.flac
  Size: 317745790 Hash: FB85B04795706AB6023E6B2E11502E47 Accuracy: -m0
  Conclusion: CDDA 100%
  Signature: 4C5B6289FE222B0043315B52385D71FC9D1151D0

2004 - Жестокий романс

Издание: СС СВ 87/04
Продолжительность - 00:50:49
Треклист:
01. Серое платье
02. Овсяное печенье
03. Друг
04. Роза на крови
05. Жестокий романс
06. Остров на Амуре
07. Тальянка
08. Совесть
09. Охотник
10. Портрет
11. Дама сердца
12. Ночка
13. Сосед
14. Розовый конь

Отчёт ЕАС:

Exact Audio Copy V1.3 from 2. September 2016
Отчёт EAC об извлечении, выполненном 20. декабря 2017, 10:57
Иван Кучин  / Жестокий романс
Дисковод: ASUS    DRW-24D5MT   Adapter: 1  ID: 0
Режим чтения                 : Достоверность
Использование точного потока : Да
Отключение кэша аудио        : Да
Использование указателей C2  : Нет
Коррекция смещения при чтении                     : 6
Способность читать области Lead-in и Lead-out     : Нет
Заполнение пропущенных сэмплов тишиной            : Да
Удаление блоков с тишиной в начале и конце        : Нет
При вычислениях CRC использовались нулевые сэмплы : Да
Интерфейс                                         : Встроенный Win32-интерфейс для Win NT/2000
Выходной формат          : Пользовательский кодировщик
Выбранный битрейт        : 128 kBit/s
Качество                 : Высокий
Добавление ID3-тега      : Нет
Утилита сжатия           : C:\Program Files (x86)\Exact Audio Copy\Flac\flac.exe
Дополнительные параметры : -V -8 -T "Date=%year%" -T "Genre=%genre%" %source%
TOC извлечённого CD
     Трек |   Старт  | Длительность | Начальный сектор | Конечный сектор
    ---------------------------------------------------------------------
       1  |  0:00.00 |    3:46.01   |           0      |      16950
       2  |  3:46.01 |    3:36.65   |       16951      |      33215
       3  |  7:22.66 |    3:58.29   |       33216      |      51094
       4  | 11:21.20 |    3:18.18   |       51095      |      65962
       5  | 14:39.38 |    3:30.20   |       65963      |      81732
       6  | 18:09.58 |    4:18.58   |       81733      |     101140
       7  | 22:28.41 |    3:11.55   |      101141      |     115520
       8  | 25:40.21 |    3:00.48   |      115521      |     129068
       9  | 28:40.69 |    3:53.24   |      129069      |     146567
      10  | 32:34.18 |    3:56.01   |      146568      |     164268
      11  | 36:30.19 |    3:36.60   |      164269      |     180528
      12  | 40:07.04 |    3:08.58   |      180529      |     194686
      13  | 43:15.62 |    3:57.43   |      194687      |     212504
      14  | 47:13.30 |    3:34.68   |      212505      |     228622
Характеристики диапазона извлечения и сообщения об ошибках
Выбранный диапазон
     Имя файла E:\Раздачи\TORRNADA-eloychik ®\Иван Кучин - 8 Альбомов [torrnada.me]\2004 - Жестокий романс\Иван Кучин  - Жестокий романс.wav
     Пиковый уровень 100.0 %
     Скорость извлечения 6.8 X
     Качество диапазона 100.0 %
     CRC теста 0AA2F1B4
     CRC копии 0AA2F1B4
     Копирование... OK
Ошибок не произошло
AccurateRip: сводка
Трек  1  : извлечено точно (доверие 1)  [8E96241D]  (AR v2)
Трек  2  : извлечено точно (доверие 1)  [E74F623A]  (AR v2)
Трек  3  : извлечено точно (доверие 1)  [F3790314]  (AR v2)
Трек  4  : извлечено точно (доверие 1)  [DB4D9BAF]  (AR v2)
Трек  5  : извлечено точно (доверие 1)  [6AFD5AB7]  (AR v2)
Трек  6  : извлечено точно (доверие 1)  [2484B806]  (AR v2)
Трек  7  : извлечено точно (доверие 1)  [1A55B698]  (AR v2)
Трек  8  : извлечено точно (доверие 1)  [E76CD1A7]  (AR v2)
Трек  9  : извлечено точно (доверие 1)  [82313380]  (AR v2)
Трек 10  : извлечено точно (доверие 1)  [8C577EB0]  (AR v2)
Трек 11  : извлечено точно (доверие 1)  [3A6F2035]  (AR v2)
Трек 12  : извлечено точно (доверие 1)  [72BB905A]  (AR v2)
Трек 13  : извлечено точно (доверие 1)  [F3A026DD]  (AR v2)
Трек 14  : извлечено точно (доверие 1)  [F655AA06]  (AR v2)
Все треки извлечены точно
Конец отчёта
==== Контрольная сумма отчёта A057E0EDB9866317A416CBEEB3F0724D51600602A3A0824C4BE319C54F341166 ====

Cue Sheet (.cue):

REM GENRE Chanson
REM DATE 2004
REM DISCID C30BE80E
REM COMMENT "ExactAudioCopy v1.3"
PERFORMER "Иван Кучин "
TITLE "Жестокий романс"
REM COMPOSER ""
FILE "Иван Кучин  - Жестокий романс.flac" WAVE
  TRACK 01 AUDIO
    TITLE "Серое платье"
    PERFORMER "Иван Кучин "
    REM COMPOSER ""
    INDEX 01 00:00:00
  TRACK 02 AUDIO
    TITLE "Овсяное печенье"
    PERFORMER "Иван Кучин "
    REM COMPOSER ""
    INDEX 01 03:46:01
  TRACK 03 AUDIO
    TITLE "Друг"
    PERFORMER "Иван Кучин "
    REM COMPOSER ""
    INDEX 01 07:22:66
  TRACK 04 AUDIO
    TITLE "Роза на крови"
    PERFORMER "Иван Кучин "
    REM COMPOSER ""
    INDEX 01 11:21:20
  TRACK 05 AUDIO
    TITLE "Жестокий романс"
    PERFORMER "Иван Кучин "
    REM COMPOSER ""
    INDEX 01 14:39:38
  TRACK 06 AUDIO
    TITLE "Остров на Амуре"
    PERFORMER "Иван Кучин "
    REM COMPOSER ""
    INDEX 01 18:09:58
  TRACK 07 AUDIO
    TITLE "Тальянка"
    PERFORMER "Иван Кучин "
    REM COMPOSER ""
    INDEX 01 22:28:41
  TRACK 08 AUDIO
    TITLE "Совесть"
    PERFORMER "Иван Кучин "
    REM COMPOSER ""
    INDEX 01 25:40:21
  TRACK 09 AUDIO
    TITLE "Охотник"
    PERFORMER "Иван Кучин "
    REM COMPOSER ""
    INDEX 01 28:40:69
  TRACK 10 AUDIO
    TITLE "Портрет"
    PERFORMER "Иван Кучин "
    REM COMPOSER ""
    INDEX 01 32:34:18
  TRACK 11 AUDIO
    TITLE "Дама сердца"
    PERFORMER "Иван Кучин "
    REM COMPOSER ""
    INDEX 01 36:30:19
  TRACK 12 AUDIO
    TITLE "Ночка"
    PERFORMER "Иван Кучин "
    REM COMPOSER ""
    INDEX 01 40:07:04
  TRACK 13 AUDIO
    TITLE "Сосед"
    PERFORMER "Иван Кучин "
    REM COMPOSER ""
    INDEX 01 43:15:62
  TRACK 14 AUDIO
    TITLE "Розовый конь"
    PERFORMER "Иван Кучин "
    REM COMPOSER ""
    INDEX 01 47:13:30

Отчёт auCDtect Task manager:

-----------------------
DON'T MODIFY THIS FILE
-----------------------
PERFORMER: auCDtect Task Manager, ver. 1.6.0 RC1 build 1.6.0.1
Copyright (c) 2008-2010 y-soft. All rights reserved
http://y-soft.org
ANALYZER: auCDtect: CD records authenticity detector, version 0.8.2
Copyright (c) 2004 Oleg Berngardt. All rights reserved.
Copyright (c) 2004 Alexander Djourik. All rights reserved.
FILE: Иван Кучин  - Жестокий романс.flac
  Size: 347646224 Hash: 9D5D673D125AC49700137F2E13C0F59B Accuracy: -m0
  Conclusion: CDDA 100%
  Signature: CD9480062B810894775B5F9A7D2513EE03866193

2012 - Небесные цветы

Издание: Classic Company CC CD 40/12
Продолжительноcть: 00:51:12
Треклиcт:
01. Верба
02. Ёжик
03. Караван
04. Прости-прощай
05. Бывший зек
06. Колокола
07. Эх, было время!
08. А в кабаке
09. Народный суд
10. Конь гнедой
11. Мамины слёзы
12. Чёрная женщина
13. Бандитский нож

Отчёт ЕАС:

Exact Audio Copy V1.0 beta 3 from 29. August 2011
Отчёт EAC об извлечении, выполненном 17. июля 2016, 11:48
Иван Кучин / Небесные цветы
Дисковод: ASUS    DRW-24B3ST   Adapter: 3  ID: 0
Режим чтения                 : Достоверность
Использование точного потока : Да
Отключение кэша аудио        : Да
Использование указателей C2  : Нет
Коррекция смещения при чтении                     : 6
Способность читать области Lead-in и Lead-out     : Нет
Заполнение пропущенных сэмплов тишиной            : Да
Удаление блоков с тишиной в начале и конце        : Нет
При вычислениях CRC использовались нулевые сэмплы : Да
Интерфейс                                         : Встроенный Win32-интерфейс для Win NT/2000
Выходной формат          : Пользовательский кодировщик
Выбранный битрейт        : 128 kBit/s
Качество                 : Высокий
Добавление ID3-тега      : Нет
Утилита сжатия           : C:\Program Files (x86)\Exact Audio Copy\Flac\flac.exe
Дополнительные параметры :  -V -8 -T "Date=%year%" -T "Genre=%genre%" %source%
TOC извлечённого CD
     Трек |   Старт  | Длительность | Начальный сектор | Конечный сектор
    ---------------------------------------------------------------------
       1  |  0:00.00 |    3:37.57   |           0      |      16331
       2  |  3:37.57 |    3:45.28   |       16332      |      33234
       3  |  7:23.10 |    3:58.00   |       33235      |      51084
       4  | 11:21.10 |    3:22.60   |       51085      |      66294
       5  | 14:43.70 |    3:55.40   |       66295      |      83959
       6  | 18:39.35 |    4:03.39   |       83960      |     102223
       7  | 22:42.74 |    3:21.57   |      102224      |     117355
       8  | 26:04.56 |    4:20.17   |      117356      |     136872
       9  | 30:24.73 |    3:55.46   |      136873      |     154543
      10  | 34:20.44 |    4:22.43   |      154544      |     174236
      11  | 38:43.12 |    4:20.63   |      174237      |     193799
      12  | 43:04.00 |    4:22.18   |      193800      |     213467
      13  | 47:26.18 |    3:45.16   |      213468      |     230358
Характеристики диапазона извлечения и сообщения об ошибках
Выбранный диапазон
     Имя файла E:\РАЗДАЧИ\TORRNADA-eloychik ®\Иван Кучин [TORRNADA]\2012 - Небесные цветы\Иван Кучин - Небесные цветы.wav
     Пиковый уровень 100.0 %
     Скорость извлечения 5.7 X
     Качество диапазона 100.0 %
     CRC теста 91EB34AF
     CRC копии 91EB34AF
     Копирование... OK
Ошибок не произошло
AccurateRip: сводка
Трек  1  : извлечено точно (доверие 1)  [A7B2E045]  (AR v1)
Трек  2  : извлечено точно (доверие 1)  [F0F3E20F]  (AR v1)
Трек  3  : извлечено точно (доверие 1)  [65337336]  (AR v1)
Трек  4  : извлечено точно (доверие 1)  [3070A03D]  (AR v1)
Трек  5  : извлечено точно (доверие 1)  [2E6E3164]  (AR v1)
Трек  6  : извлечено точно (доверие 1)  [C7101210]  (AR v1)
Трек  7  : извлечено точно (доверие 1)  [36E700FD]  (AR v1)
Трек  8  : извлечено точно (доверие 1)  [4AC57E7E]  (AR v1)
Трек  9  : извлечено точно (доверие 1)  [7AFFD225]  (AR v1)
Трек 10  : извлечено точно (доверие 1)  [EB2D8531]  (AR v1)
Трек 11  : извлечено точно (доверие 1)  [03A12090]  (AR v1)
Трек 12  : извлечено точно (доверие 1)  [48419D3C]  (AR v1)
Трек 13  : извлечено точно (доверие 1)  [0C170E7A]  (AR v1)
Все треки извлечены точно
Конец отчёта
==== Контрольная сумма отчёта 0BCA738DAE613CA5D7ABF9D21BBC332EC16E1922DC89C297967A793D5730A618 ====

Cue Sheet (.cue):

REM GENRE Chanson
REM DATE 2012
REM DISCID B80BFF0D
REM COMMENT "ExactAudioCopy v1.0b3"
PERFORMER "Иван Кучин"
TITLE "Небесные цветы"
FILE "Иван Кучин - Небесные цветы.flac" WAVE
  TRACK 01 AUDIO
    TITLE "Верба"
    PERFORMER "Иван Кучин"
    INDEX 01 00:00:00
  TRACK 02 AUDIO
    TITLE "Ежик"
    PERFORMER "Иван Кучин"
    INDEX 01 03:37:57
  TRACK 03 AUDIO
    TITLE "Караван"
    PERFORMER "Иван Кучин"
    INDEX 01 07:23:10
  TRACK 04 AUDIO
    TITLE "Прости-прощай"
    PERFORMER "Иван Кучин"
    INDEX 01 11:21:10
  TRACK 05 AUDIO
    TITLE "Бывший зек"
    PERFORMER "Иван Кучин"
    INDEX 01 14:43:70
  TRACK 06 AUDIO
    TITLE "Колокола"
    PERFORMER "Иван Кучин"
    INDEX 01 18:39:35
  TRACK 07 AUDIO
    TITLE "Эх,было время!"
    PERFORMER "Иван Кучин"
    INDEX 01 22:42:74
  TRACK 08 AUDIO
    TITLE "А в кабаке"
    PERFORMER "Иван Кучин"
    INDEX 01 26:04:56
  TRACK 09 AUDIO
    TITLE "Народный суд"
    PERFORMER "Иван Кучин"
    INDEX 01 30:24:73
  TRACK 10 AUDIO
    TITLE "Конь гнедой"
    PERFORMER "Иван Кучин"
    INDEX 01 34:20:44
  TRACK 11 AUDIO
    TITLE "Мамины слезы"
    PERFORMER "Иван Кучин"
    INDEX 01 38:43:12
  TRACK 12 AUDIO
    TITLE "Черная женщина"
    PERFORMER "Иван Кучин"
    INDEX 01 43:04:00
  TRACK 13 AUDIO
    TITLE "Бандитский нож"
    PERFORMER "Иван Кучин"
    INDEX 01 47:26:18

Отчёт auCDtect Task manager:

-----------------------
DON'T MODIFY THIS FILE
-----------------------
PERFORMER: auCDtect Task Manager, ver. 1.6.0 RC1 build 1.6.0.1
Copyright (c) 2008-2010 y-soft. All rights reserved
http://y-soft.org
ANALYZER: auCDtect: CD records authenticity detector, version 0.8.2
Copyright (c) 2004 Oleg Berngardt. All rights reserved.
Copyright (c) 2004 Alexander Djourik. All rights reserved.
FILE: Иван Кучин - Небесные цветы.flac
  Size: 359933447 Hash: 5BD4EC881D1E1316F27348888522C469 Accuracy: -m0
  Conclusion: CDDA 100%
  Signature: FCAEBEDDA89D36C9244CCF71819B12624EACF7F5

2018 - Военный альбом

Издание: United Music Grup UMGCD18-1957
Продолжительность - 01:14:20
Треклист:
01. Десантура
02. Дюймовочка
03. Зеркала
04. Два ветерана
05. Черный асфальт
06. В цинковом гробу
07. Служили два бойца
08. Любимая моя
09. Солдаточка
10. Афганка
11. Алехина тетрадь
12. Валерка
13. Вечный караул
14. Дембелям на плацу
15. Почтовый
16. Куст рябины

Отчёт ЕАС:

Exact Audio Copy V1.3 from 2. September 2016
Отчёт EAC об извлечении, выполненном 13. октября 2018, 19:16
Иван Кучин / Военный альбом
Дисковод: ASUS    DRW-24F1MT   Adapter: 1  ID: 0
Режим чтения                 : Достоверность
Использование точного потока : Да
Отключение кэша аудио        : Да
Использование указателей C2  : Нет
Коррекция смещения при чтении                     : 6
Способность читать области Lead-in и Lead-out     : Нет
Заполнение пропущенных сэмплов тишиной            : Да
Удаление блоков с тишиной в начале и конце        : Нет
При вычислениях CRC использовались нулевые сэмплы : Да
Интерфейс                                         : Встроенный Win32-интерфейс для Win NT/2000
Выходной формат          : Пользовательский кодировщик
Выбранный битрейт        : 128 kBit/s
Качество                 : Высокий
Добавление ID3-тега      : Нет
Утилита сжатия           : C:\Program Files (x86)\Exact Audio Copy\Flac\flac.exe
Дополнительные параметры : -V -8 -T "Date=%year%" -T "Genre=%genre%" %source%
TOC извлечённого CD
     Трек |   Старт  | Длительность | Начальный сектор | Конечный сектор
    ---------------------------------------------------------------------
       1  |  0:00.00 |    4:40.02   |           0      |      21001
       2  |  4:40.02 |    4:09.10   |       21002      |      39686
       3  |  8:49.12 |    4:32.59   |       39687      |      60145
       4  | 13:21.71 |    6:10.18   |       60146      |      87913
       5  | 19:32.14 |    5:58.35   |       87914      |     114798
       6  | 25:30.49 |    4:04.62   |      114799      |     133160
       7  | 29:35.36 |    4:11.00   |      133161      |     151985
       8  | 33:46.36 |    3:06.71   |      151986      |     166006
       9  | 36:53.32 |    3:46.03   |      166007      |     182959
      10  | 40:39.35 |    5:31.16   |      182960      |     207800
      11  | 46:10.51 |    6:48.63   |      207801      |     238463
      12  | 52:59.39 |    5:25.56   |      238464      |     262894
      13  | 58:25.20 |    4:55.51   |      262895      |     285070
      14  | 63:20.71 |    2:38.48   |      285071      |     296968
      15  | 65:59.44 |    4:44.31   |      296969      |     318299
      16  | 70:44.00 |    3:35.63   |      318300      |     334487
Характеристики диапазона извлечения и сообщения об ошибках
Выбранный диапазон
     Имя файла E:\Раздачи\TORRNADA-eloychik ®\Иван Кучин - 12 Альбомов [torrnada.ME]\2018 - Военный альбом\Иван Кучин - Военный альбом.wav
     Пиковый уровень 98.8 %
     Скорость извлечения 3.4 X
     Качество диапазона 100.0 %
     CRC теста 8FDE9168
     CRC копии 8FDE9168
     Копирование... OK
Ошибок не произошло
AccurateRip: сводка
Трек  1  отсутствует в базе данных
Трек  2  отсутствует в базе данных
Трек  3  отсутствует в базе данных
Трек  4  отсутствует в базе данных
Трек  5  отсутствует в базе данных
Трек  6  отсутствует в базе данных
Трек  7  отсутствует в базе данных
Трек  8  отсутствует в базе данных
Трек  9  отсутствует в базе данных
Трек 10  отсутствует в базе данных
Трек 11  отсутствует в базе данных
Трек 12  отсутствует в базе данных
Трек 13  отсутствует в базе данных
Трек 14  отсутствует в базе данных
Трек 15  отсутствует в базе данных
Трек 16  отсутствует в базе данных
Ни одного трека нет в базе AccurateRip
Конец отчёта
==== Контрольная сумма отчёта C41EE1170D5C6E89E72E891CD16C75C2B81D8A2B5D588510F9474A82B54970D8 ====

Cue Sheet (.cue):

REM GENRE Chanson
REM DATE 2018
REM DISCID CF116B10
REM COMMENT "ExactAudioCopy v1.3"
PERFORMER "Иван Кучин"
TITLE "Военный альбом"
REM COMPOSER ""
FILE "Иван Кучин - Военный альбом.flac" WAVE
  TRACK 01 AUDIO
    TITLE "Десантура"
    PERFORMER "Иван Кучин"
    REM COMPOSER ""
    INDEX 01 00:00:00
  TRACK 02 AUDIO
    TITLE "Дюймовочка"
    PERFORMER "Иван Кучин"
    REM COMPOSER ""
    INDEX 01 04:40:02
  TRACK 03 AUDIO
    TITLE "Зеркала"
    PERFORMER "Иван Кучин"
    REM COMPOSER ""
    INDEX 01 08:49:12
  TRACK 04 AUDIO
    TITLE "Два ветерана"
    PERFORMER "Иван Кучин"
    REM COMPOSER ""
    INDEX 01 13:21:71
  TRACK 05 AUDIO
    TITLE "Черный асфальт"
    PERFORMER "Иван Кучин"
    REM COMPOSER ""
    INDEX 01 19:32:14
  TRACK 06 AUDIO
    TITLE "В цинковом гробу"
    PERFORMER "Иван Кучин"
    REM COMPOSER ""
    INDEX 01 25:30:49
  TRACK 07 AUDIO
    TITLE "Служили два бойца"
    PERFORMER "Иван Кучин"
    REM COMPOSER ""
    INDEX 01 29:35:36
  TRACK 08 AUDIO
    TITLE "Любимая моя"
    PERFORMER "Иван Кучин"
    REM COMPOSER ""
    INDEX 01 33:46:36
  TRACK 09 AUDIO
    TITLE "Солдаточка"
    PERFORMER "Иван Кучин"
    REM COMPOSER ""
    INDEX 01 36:53:32
  TRACK 10 AUDIO
    TITLE "Афганка"
    PERFORMER "Иван Кучин"
    REM COMPOSER ""
    INDEX 01 40:39:35
  TRACK 11 AUDIO
    TITLE "Алехина тетрадь"
    PERFORMER "Иван Кучин"
    REM COMPOSER ""
    INDEX 01 46:10:51
  TRACK 12 AUDIO
    TITLE "Валерка"
    PERFORMER "Иван Кучин"
    REM COMPOSER ""
    INDEX 01 52:59:39
  TRACK 13 AUDIO
    TITLE "Вечный караул"
    PERFORMER "Иван Кучин"
    REM COMPOSER ""
    INDEX 01 58:25:20
  TRACK 14 AUDIO
    TITLE "Дембеля на плацу"
    PERFORMER "Иван Кучин"
    REM COMPOSER ""
    INDEX 01 63:20:71
  TRACK 15 AUDIO
    TITLE "Почтовый"
    PERFORMER "Иван Кучин"
    REM COMPOSER ""
    INDEX 01 65:59:44
  TRACK 16 AUDIO
    TITLE "Куст рябины"
    PERFORMER "Иван Кучин"
    REM COMPOSER ""
    INDEX 01 70:44:00

Отчёт auCDtect Task manager:

-----------------------
DON'T MODIFY THIS FILE
-----------------------
PERFORMER: auCDtect Task Manager, ver. 1.6.0 RC1 build 1.6.0.1
Copyright (c) 2008-2010 y-soft. All rights reserved
http://y-soft.org
ANALYZER: auCDtect: CD records authenticity detector, version 0.8.2
Copyright (c) 2004 Oleg Berngardt. All rights reserved.
Copyright (c) 2004 Alexander Djourik. All rights reserved.
FILE: Иван Кучин - Военный альбом.flac
  Size: 498061945 Hash: 8F2CAED92FC03938F9CEEC8BF5D9E319 Accuracy: -m0
  Conclusion: MPEG 95%
  Signature: AC0D0B07A785F382FD61A5487495158501B28355

Спектрограмма:

[Цитировать]

У него есть еще альбом - "Сиротская доля".

[Цитировать]

MOT®OSS
Спасибо ! aa

[Цитировать]

305988У него есть еще альбом - "Сиротская доля".
Да. это альбом 2015 года

Комментарий от MOT®OSS


Извините,что нашёл,то и залил.

[Цитировать]

306027
305988У него есть еще альбом - "Сиротская доля".
Да. это альбом 2015 года
Не извиняйтесь. Огромное спасибо, за дискография, да еще и в таком качестве.


Показать сообщения:    

Текущее время: 13-Ноя 06:44

Часовой пояс: UTC + 3


Вы не можете начинать темы
Вы не можете отвечать на сообщения
Вы не можете редактировать свои сообщения
Вы не можете удалять свои сообщения
Вы не можете голосовать в опросах
Вы не можете прикреплять файлы к сообщениям
Вы не можете скачивать файлы

!ВНИМАНИЕ!
Сайт не предоставляет электронные версии произведений, а занимается лишь коллекционированием и каталогизацией ссылок, присылаемых и публикуемых на форуме нашими читателями. Если вы являетесь правообладателем какого-либо представленного материала и не желаете, чтобы ссылка на него находилась в нашем каталоге, свяжитесь с нами, и мы незамедлительно удалим ее. Файлы для обмена на трекере предоставлены пользователями сайта, и администрация не несет ответственности за их содержание. Просьба не заливать файлы, защищенные авторскими правами, а также файлы нелегального содержания!