[Цитировать]

--The Rolling Stones - Voodoo Lounge Uncut 1994 (2018)-- Производство: Eagle Rock Entertainment
Жанр: Rock
Режиссер: David Mallet
Актеры: The Rolling Stones
Продолжительность: 02:29:38 + 00:24:05
Качество видео: DVD5
Субтитры: отсутствуют
Основной концерт:
Видео: MPEG-2, 720х[email protected], ~4800 Kbps
Аудио1: LPCM, 2 ch, 1536 Kbps
Аудио2: AC-3, 6 ch, 448 Kbps
Бонус:
Видео: MPEG-2, 720х[email protected], ~4800 Kbps
Аудио1: AC-3, 2 ch, 448 Kbps

Описание:
Полная видеоверсия выступления The Rolling Stones на сцене Miami’s Joe Robbie stadium 25.11.1994г.
Бонусом добавлен фрагмент чуть более раннего выступления в Нью-Джерси на сцене Giants Stadium из того же тура Voodoo Lounge.

Дата выхода DVD/Blu-ray релиза: 16.11.2018

Треклист:


Disc 1
01. Whoopi Goldberg Intro
02. Not Fade Away
03. Tumbling Dice
04. You Got Me Rocking
05. Rocks Off
06. Sparks Will Fly
07. Live With Me /with Sheryl Crow/
08. (I Can’t Get No) Satisfaction
09. Beast Of Burden
10. Angie
11. Dead Flowers
12. Sweet Virginia
13. Doo Doo Doo Doo Doo (Heartbreaker)
14. It’s All Over Now
15. Stop Breakin’ Down /with Robert Cray/
16. Who Do You Love? /with Bo Diddley/
17. I Go Wild
Disc 2
18. Miss You
19. Honky Tonk Women
20. Before They Make Me Run
21. The Worst
22. Sympathy For The Devil
23. Monkey Man
24. Street Fighting Man
25. Start Me Up
26. It’s Only Rock’n’Roll (But I Like It)
27. Brown Sugar
28. Jumpin’ Jack Flash
Бонус:
Live At Giants Stadium, East Rutherford, NJ, USA (1994)
01. Shattered
02. Out Of Tears
03. All Down The Line
04. I Can’t Get Next To You
05. Happy

Состав:


Mick Jagger: lead vocals, guitar, harmonica
Keith Richards: guitar, vocals
Ronnie Wood: guitar
Charlie Watts: drums
Darryl Jones: bass, backing vocals
Chuck Leavell: keyboards, backing vocals
Bobby Keys: saxophone
Andy Snitzer: saxophone, keyboards
Michael Davis: trombone
Kent Smith: trumpet
Lisa Fischer: backing vocals
Bernard Fowler: backing vocals
Blondie Chaplin: backing vocals, percussion

Диск 1 Mediainfo:

Общее
Полное имя : D:\Downloads\Rolling Stones - Voodoo Lounge.Uncut.1994\01\VIDEO_TS\VTS_01_1.VOB
Формат : MPEG-PS
Размер файла : 1024 Мбайт
Продолжительность : 20 м. 30 с.
Режим общего битрейта : Переменный
Общий поток : 6982 Кбит/сек
Видео
Идентификатор : 224 (0xE0)
Формат : MPEG Video
Версия формата : Version 2
Профиль формата : [email protected]
Настройки формата : CustomMatrix / BVOP
Параметр BVOP формата : Да
Параметр матрицы формата : Выборочная
Параметр GOP формата : Variable
Структура изображения : Frame
Продолжительность : 20 м. 30 с.
Вид битрейта : Переменный
Битрейт : 4859 Кбит/сек
Максимальный битрейт : 7500 Кбит/сек
Ширина : 720 пикселей
Высота : 480 пикселей
Соотношение сторон : 16:9
Частота кадров : 29,970 (30000/1001) кадров/сек
Стандарт вещания : NTSC
Цветовое пространство : YUV
Субдискретизация насыщенности : 4:2:0
Битовая глубина : 8 бит
Тип развёртки : Чересстрочная
Порядок развёртки : Верхнее поле первое
Метод сжатия : С потерями
Бит/(Пиксели*Кадры) : 0.469
Временной код первого кадра : 00:00:00:00
Оригинал временного кода : Group of pictures header
Размер потока : 713 Мбайт (70%)
Основные цвета : BT.601 NTSC
Характеристики трансфера : BT.601
Коэффициенты матрицы : BT.601
Аудио #1
Идентификатор : 189 (0xBD)-129 (0x81)
Формат : AC-3
Формат/Информация : Audio Coding 3
Режим смешивания : DVD-Video
Продолжительность : 20 м. 29 с.
Вид битрейта : Постоянный
Битрейт : 448 Кбит/сек
Каналы : 6 каналов
Расположение каналов : Front: L C R, Side: L R, LFE
Частота : 48,0 КГц
Частота кадров : 31,250 кадров/сек (1536 SPF)
Битовая глубина : 16 бит
Метод сжатия : С потерями
Размер потока : 65,7 Мбайт (6%)
ServiceKind/String : Complete Main
Аудио #2
Идентификатор : 189 (0xBD)-160 (0xA0)
Формат : PCM
Настройки формата : Big / Signed
Режим смешивания : DVD-Video
Продолжительность : 20 м. 29 с.
Вид битрейта : Постоянный
Битрейт : 1536 Кбит/сек
Каналы : 2 канала
Частота : 48,0 КГц
Битовая глубина : 16 бит
Размер потока : 225 Мбайт (22%)

Диск 1 DVDinfo:

Title: 01
Size: 4.23 Gb ( 4 431 554,00 KBytes ) - DVD-5
Enabled regions: 1, 2, 3, 4, 5, 6, 7, 8
VTS_01 :
Play Length: 01:22:39
Video: NTSC 16:9 (720x480) VBR, Auto Letterboxed
Audio:
English (LinearPCM, 2 ch)
English (Dolby AC3, 6 ch)

Диск 2 Mediainfo:

Общее
Полное имя : D:\Downloads\Rolling Stones - Voodoo Lounge.Uncut.1994\02\VIDEO_TS\VTS_01_1.VOB
Формат : MPEG-PS
Размер файла : 1024 Мбайт
Продолжительность : 20 м. 35 с.
Режим общего битрейта : Переменный
Общий поток : 6950 Кбит/сек
Библиотека кодирования : encoded by TMPGEnc Authoring Works 4 Version. 4.0.11.39
Видео
Идентификатор : 224 (0xE0)
Формат : MPEG Video
Версия формата : Version 2
Профиль формата : [email protected]
Настройки формата : CustomMatrix / BVOP
Параметр BVOP формата : Да
Параметр матрицы формата : Выборочная
Параметр GOP формата : Variable
Структура изображения : Frame
Продолжительность : 20 м. 35 с.
Вид битрейта : Переменный
Битрейт : 4827 Кбит/сек
Максимальный битрейт : 7500 Кбит/сек
Ширина : 720 пикселей
Высота : 480 пикселей
Соотношение сторон : 16:9
Частота кадров : 29,970 (30000/1001) кадров/сек
Стандарт вещания : NTSC
Цветовое пространство : YUV
Субдискретизация насыщенности : 4:2:0
Битовая глубина : 8 бит
Тип развёртки : Чересстрочная
Порядок развёртки : Верхнее поле первое
Метод сжатия : С потерями
Бит/(Пиксели*Кадры) : 0.466
Временной код первого кадра : 00:00:00:00
Оригинал временного кода : Group of pictures header
Размер потока : 711 Мбайт (69%)
Библиотека кодирования : TMPGEnc Authoring Works 4 Version. 4.0.11.39
Основные цвета : BT.601 NTSC
Характеристики трансфера : BT.601
Коэффициенты матрицы : BT.601
Аудио #1
Идентификатор : 189 (0xBD)-129 (0x81)
Формат : AC-3
Формат/Информация : Audio Coding 3
Режим смешивания : DVD-Video
Продолжительность : 20 м. 35 с.
Вид битрейта : Постоянный
Битрейт : 448 Кбит/сек
Каналы : 6 каналов
Расположение каналов : Front: L C R, Side: L R, LFE
Частота : 48,0 КГц
Частота кадров : 31,250 кадров/сек (1536 SPF)
Битовая глубина : 16 бит
Метод сжатия : С потерями
Размер потока : 66,0 Мбайт (6%)
ServiceKind/String : Complete Main
Аудио #2
Идентификатор : 189 (0xBD)-160 (0xA0)
Формат : PCM
Настройки формата : Big / Signed
Режим смешивания : DVD-Video
Продолжительность : 20 м. 35 с.
Вид битрейта : Постоянный
Битрейт : 1536 Кбит/сек
Каналы : 2 канала
Частота : 48,0 КГц
Битовая глубина : 16 бит
Размер потока : 226 Мбайт (22%)

Диск 2 DVDinfo:

Title: 02
Size: 4.31 Gb ( 4 517 076,00 KBytes ) - DVD-5
Enabled regions: 1, 2, 3, 4, 5, 6, 7, 8
VTS_01 :
Play Length: 01:06:59
Video: NTSC 16:9 (720x480) VBR, Auto Letterboxed
Audio:
English (LinearPCM, 2 ch)
English (Dolby AC3, 6 ch)
VTS_02 :
Play Length: 00:24:05
Video: NTSC 16:9 (720x480) VBR, Auto Letterboxed
Audio:
English (Dolby AC3, 2 ch)

Дополнительная информация:

Источник - SD Blu-ray, 1080i, найден неподалеку в сети.Картинка на БД - стандартного ДВД-качества (похоже,лучшей уже не будет),звук приличный.При перекодировании использовался TMPGEnc Video Mastering Works 5, при авторинге - TMPGEnc Authoring Works 4.

Скриншоты:

Скриншоты меню:

--

[new.torrnado.win].t209824.torrent 
 СЕРЕБРЯНАЯ РАЗДАЧА! СКАЧАННОЕ ЗАСЧИТЫВАЕТСЯ ТОЛЬКО НАПОЛОВИНУ! 
Торрент: Зарегистрирован   [ 2018-12-04 09:44 ] · A710325C686D2A5BFC6673DB17F179F9BF761192

Скачать .torrent

Скачать

23 KB

Тут должна быть ссылка на скачивание, если ее нет - значит ваш блокировщик рекламы ее заблокировал, что бы скачивать файлы с нашего сайта отключите блокировщик рекламы! И перезагрузите страницу.
Статус: проверено
Скачан: 22 раз
Размер: 8,53 GB
Оценка:  5 (Голосов: 1) СуперХорошоСреднеТак себеОтстой
Поблагодарили: 7  Спасибо   (список)
Поделится:


Показать сообщения:    

Текущее время: 14-Дек 22:59

Часовой пояс: UTC + 3


Вы не можете начинать темы
Вы не можете отвечать на сообщения
Вы не можете редактировать свои сообщения
Вы не можете удалять свои сообщения
Вы не можете голосовать в опросах
Вы не можете прикреплять файлы к сообщениям
Вы можете скачивать файлы

!ВНИМАНИЕ!
Сайт не предоставляет электронные версии произведений, а занимается лишь коллекционированием и каталогизацией ссылок, присылаемых и публикуемых на форуме нашими читателями. Если вы являетесь правообладателем какого-либо представленного материала и не желаете, чтобы ссылка на него находилась в нашем каталоге, свяжитесь с нами, и мы незамедлительно удалим ее. Файлы для обмена на трекере предоставлены пользователями сайта, и администрация не несет ответственности за их содержание. Просьба не заливать файлы, защищенные авторскими правами, а также файлы нелегального содержания!