۩ Уважаемые пользователи и гости TORRNADA.com!_____________________Приветствуем Вас на нашем ресурсе!_____________________ Пожалуйста , ознакомьтесь с правилами ._____________________ Желаем приятного времяпровождения на TORRNADA! ۩

 

[Цитировать]

Полярный / Polar (2019) WEBRip 1080p | Sub-- Информация о фильме
Название: Полярный
Оригинальное название: Polar
Год выхода: 2019
Жанр: Боевик, криминал
Режиссер: Йонас Окерлунд
В ролях: Мадс Миккельсен, Ванесса Энн Хадженс, Кэтрин Уинник, Руби О. Фи, Джонни Ноксвилл, Мэтт Лукас, Сима Фишер, Роберт Мэйллет, Фэй Рен, Инга Кадранел
О фильме:
Дункан Визла — один из самых опасных киллеров в мире, известный под прозвищем Черный Кайзер. Когда-то он убивал людей по всему свету, но теперь наслаждается мирным существованием и давно уже не брал в руки оружие. Только вот бывший клиент, с которым у Дункана произошел небольшой конфликт, не собирается забывать старые обиды. В скором времени мирной жизни бывшего киллера придет конец, когда за Дунканом начнет охоту армия из молодых и беспощадных убийц. Для спасения жизни ему предстоит использовать все полученные за долгие годы заказных убийств навыки и знания.
Страна: США, Германия
Студия: Constantin Film, Dark Horse Entertainment
Продолжительность: 01:58:53
Перевод: СУБТИТРЫ
Файл
Кодек: AVC
Качество: WEBRip 1080p
Видео: MPEG-4 AVC, 6490 Kбит/с, 1920x1080, 23.976 кадр/с
Аудио: Английский ( E-AC3, 6ch, 640 Кбит/с, 48.0 KHz)
Субтитры: Русские, английские, испанские, французские, немецкие, португальские и др. (см. Инфо-файл)

MediaInfo

Источник: Polar.2019.1080p.NF.WEB-DL.DDP5.1.x264-NTG
General
Unique ID : 184294995324368441863702644794843462652 (0x8AA5ECCD6DB475819CBF065573A7FBFC)
Complete name : Polar.2019.NF.WEB-DL.1080p.Sub.mkv
Format : Matroska
Format version : Version 4 / Version 2
File size : 5.89 GiB
Duration : 1 h 58 min
Overall bit rate mode : Variable
Overall bit rate : 7 087 kb/s
Encoded date : UTC 2019-01-25 09:40:50
Writing application : mkvmerge v7.1.0 ('Good Love') 64bit built on Jul 27 2014 13:06:55
Writing library : libebml v1.3.0 + libmatroska v1.4.1
Video
ID : 1
Format : AVC
Format/Info : Advanced Video Codec
Format profile : [email protected]
Format settings, CABAC : Yes
Format settings, RefFrames : 3 frames
Codec ID : V_MPEG4/ISO/AVC
Duration : 1 h 58 min
Bit rate mode : Variable
Bit rate : 6 490 kb/s
Maximum bit rate : 9 735 kb/s
Width : 1 920 pixels
Height : 1 080 pixels
Display aspect ratio : 16:9
Frame rate mode : Constant
Frame rate : 23.976 (24000/1001) FPS
Color space : YUV
Chroma subsampling : 4:2:0
Bit depth : 8 bits
Scan type : Progressive
Bits/(Pixel*Frame) : 0.131
Stream size : 5.35 GiB (91%)
Writing library : x264 core 148 r2715 7e75228
Encoding settings : cabac=1 / ref=3 / deblock=1:0:0 / analyse=0x1:0x111 / me=umh / subme=10 / psy=1 / psy_rd=1.00:0.00 / mixed_ref=1 / me_range=24 / chroma_me=1 / trellis=2 / 8x8dct=0 / cqm=0 / deadzone=21,11 / fast_pskip=1 / chroma_qp_offset=-2 / threads=8 / lookahead_threads=1 / sliced_threads=0 / nr=0 / decimate=1 / interlaced=0 / bluray_compat=0 / stitchable=1 / constrained_intra=0 / bframes=2 / b_pyramid=0 / b_adapt=2 / b_bias=0 / direct=3 / weightb=1 / open_gop=0 / weightp=2 / keyint=48 / keyint_min=25 / scenecut=0 / intra_refresh=0 / rc_lookahead=48 / rc=2pass / mbtree=1 / bitrate=6490 / ratetol=1.0 / qcomp=0.50 / qpmin=6 / qpmax=51 / qpstep=4 / cplxblur=20.0 / qblur=0.5 / vbv_maxrate=9735 / vbv_bufsize=12980 / nal_hrd=vbr / filler=0 / ip_ratio=1.40 / aq=1:1.00
Default : Yes
Forced : No
Audio
ID : 2
Format : E-AC-3
Format/Info : Enhanced Audio Coding 3
Format settings, Endianness : Big
Codec ID : A_EAC3
Duration : 1 h 58 min
Bit rate mode : Constant
Bit rate : 640 kb/s
Channel(s) : 6 channels
Channel positions : Front: L C R, Side: L R, LFE
Sampling rate : 48.0 kHz
Frame rate : 187.500 FPS (256 SPF)
Compression mode : Lossy
Stream size : 544 MiB (9%)
Language : English
Service kind : Complete Main
Default : Yes
Forced : No
Text #1
ID : 3
Format : UTF-8
Codec ID : S_TEXT/UTF8
Codec ID/Info : UTF-8 Plain Text
Duration : 1 h 47 min
Bit rate : 61 b/s
Count of elements : 1086
Stream size : 48.1 KiB (0%)
Language : Russian
Default : Yes
Forced : No
Text #2
ID : 4
Format : UTF-8
Codec ID : S_TEXT/UTF8
Codec ID/Info : UTF-8 Plain Text
Duration : 1 h 53 min
Bit rate : 42 b/s
Count of elements : 1220
Stream size : 35.1 KiB (0%)
Language : English
Default : No
Forced : No
Text #3
ID : 5
Format : UTF-8
Codec ID : S_TEXT/UTF8
Codec ID/Info : UTF-8 Plain Text
Duration : 1 h 54 min
Bit rate : 54 b/s
Count of elements : 1648
Stream size : 45.6 KiB (0%)
Title : SDH
Language : English
Default : No
Forced : No
Text #4
ID : 6
Format : UTF-8
Codec ID : S_TEXT/UTF8
Codec ID/Info : UTF-8 Plain Text
Duration : 12 min 17 s
Bit rate : 14 b/s
Count of elements : 56
Stream size : 1.27 KiB (0%)
Title : Forced
Language : English
Default : No
Forced : No
Text #5
ID : 7
Format : UTF-8
Codec ID : S_TEXT/UTF8
Codec ID/Info : UTF-8 Plain Text
Duration : 1 h 47 min
Bit rate : 67 b/s
Count of elements : 1129
Stream size : 52.9 KiB (0%)
Language : Arabic
Default : No
Forced : No
Text #6
ID : 8
Format : UTF-8
Codec ID : S_TEXT/UTF8
Codec ID/Info : UTF-8 Plain Text
Duration : 1 h 47 min
Bit rate : 39 b/s
Count of elements : 1132
Stream size : 31.0 KiB (0%)
Language : Danish
Default : No
Forced : No
Text #7
ID : 9
Format : UTF-8
Codec ID : S_TEXT/UTF8
Codec ID/Info : UTF-8 Plain Text
Duration : 1 h 47 min
Bit rate : 43 b/s
Count of elements : 1111
Stream size : 34.4 KiB (0%)
Language : German
Default : No
Forced : No
Text #8
ID : 10
Format : UTF-8
Codec ID : S_TEXT/UTF8
Codec ID/Info : UTF-8 Plain Text
Duration : 1 h 47 min
Bit rate : 63 b/s
Count of elements : 1091
Stream size : 49.8 KiB (0%)
Language : Greek
Default : No
Forced : No
Text #9
ID : 11
Format : UTF-8
Codec ID : S_TEXT/UTF8
Codec ID/Info : UTF-8 Plain Text
Duration : 1 h 47 min
Bit rate : 34 b/s
Count of elements : 1087
Stream size : 27.3 KiB (0%)
Title : European
Language : Spanish
Default : No
Forced : No
Text #10
ID : 12
Format : UTF-8
Codec ID : S_TEXT/UTF8
Codec ID/Info : UTF-8 Plain Text
Duration : 1 h 47 min
Bit rate : 34 b/s
Count of elements : 1103
Stream size : 27.6 KiB (0%)
Language : Spanish
Default : No
Forced : No
Text #11
ID : 13
Format : UTF-8
Codec ID : S_TEXT/UTF8
Codec ID/Info : UTF-8 Plain Text
Duration : 1 h 47 min
Bit rate : 40 b/s
Count of elements : 949
Stream size : 31.9 KiB (0%)
Language : Finnish
Default : No
Forced : No
Text #12
ID : 14
Format : UTF-8
Codec ID : S_TEXT/UTF8
Codec ID/Info : UTF-8 Plain Text
Duration : 1 h 47 min
Bit rate : 39 b/s
Count of elements : 1112
Stream size : 31.2 KiB (0%)
Language : French
Default : No
Forced : No
Text #13
ID : 15
Format : UTF-8
Codec ID : S_TEXT/UTF8
Codec ID/Info : UTF-8 Plain Text
Duration : 1 h 47 min
Bit rate : 58 b/s
Count of elements : 1122
Stream size : 46.1 KiB (0%)
Language : Hebrew
Default : No
Forced : No
Text #14
ID : 16
Format : UTF-8
Codec ID : S_TEXT/UTF8
Codec ID/Info : UTF-8 Plain Text
Duration : 1 h 54 min
Bit rate : 111 b/s
Count of elements : 1210
Stream size : 93.5 KiB (0%)
Language : Hindi
Default : No
Forced : No
Text #15
ID : 17
Format : UTF-8
Codec ID : S_TEXT/UTF8
Codec ID/Info : UTF-8 Plain Text
Duration : 1 h 47 min
Bit rate : 38 b/s
Count of elements : 1114
Stream size : 30.2 KiB (0%)
Language : Indonesian
Default : No
Forced : No
Text #16
ID : 18
Format : UTF-8
Codec ID : S_TEXT/UTF8
Codec ID/Info : UTF-8 Plain Text
Duration : 1 h 47 min
Bit rate : 41 b/s
Count of elements : 1116
Stream size : 32.8 KiB (0%)
Language : Italian
Default : No
Forced : No
Text #17
ID : 19
Format : UTF-8
Codec ID : S_TEXT/UTF8
Codec ID/Info : UTF-8 Plain Text
Duration : 1 h 47 min
Bit rate : 45 b/s
Count of elements : 1240
Stream size : 35.8 KiB (0%)
Language : Japanese
Default : No
Forced : No
Text #18
ID : 20
Format : UTF-8
Codec ID : S_TEXT/UTF8
Codec ID/Info : UTF-8 Plain Text
Duration : 1 h 47 min
Bit rate : 49 b/s
Count of elements : 1127
Stream size : 38.8 KiB (0%)
Language : Korean
Default : No
Forced : No
Text #19
ID : 21
Format : UTF-8
Codec ID : S_TEXT/UTF8
Codec ID/Info : UTF-8 Plain Text
Duration : 1 h 47 min
Bit rate : 34 b/s
Count of elements : 1038
Stream size : 27.6 KiB (0%)
Language : Norwegian Bokmal
Default : No
Forced : No
Text #20
ID : 22
Format : UTF-8
Codec ID : S_TEXT/UTF8
Codec ID/Info : UTF-8 Plain Text
Duration : 1 h 54 min
Bit rate : 41 b/s
Count of elements : 1167
Stream size : 34.4 KiB (0%)
Language : Dutch
Default : No
Forced : No
Text #21
ID : 23
Format : UTF-8
Codec ID : S_TEXT/UTF8
Codec ID/Info : UTF-8 Plain Text
Duration : 1 h 47 min
Bit rate : 36 b/s
Count of elements : 1109
Stream size : 28.9 KiB (0%)
Language : Polish
Default : No
Forced : No
Text #22
ID : 24
Format : UTF-8
Codec ID : S_TEXT/UTF8
Codec ID/Info : UTF-8 Plain Text
Duration : 1 h 47 min
Bit rate : 39 b/s
Count of elements : 1106
Stream size : 31.5 KiB (0%)
Language : Portuguese
Default : No
Forced : No
Text #23
ID : 25
Format : UTF-8
Codec ID : S_TEXT/UTF8
Codec ID/Info : UTF-8 Plain Text
Duration : 1 h 47 min
Bit rate : 39 b/s
Count of elements : 1089
Stream size : 31.2 KiB (0%)
Title : Brazilian
Language : Portuguese
Default : No
Forced : No
Text #24
ID : 26
Format : UTF-8
Codec ID : S_TEXT/UTF8
Codec ID/Info : UTF-8 Plain Text
Duration : 1 h 47 min
Bit rate : 45 b/s
Count of elements : 1113
Stream size : 35.6 KiB (0%)
Language : Romanian
Default : No
Forced : No
Text #25
ID : 27
Format : UTF-8
Codec ID : S_TEXT/UTF8
Codec ID/Info : UTF-8 Plain Text
Duration : 1 h 47 min
Bit rate : 36 b/s
Count of elements : 1122
Stream size : 28.8 KiB (0%)
Language : Swedish
Default : No
Forced : No
Text #26
ID : 28
Format : UTF-8
Codec ID : S_TEXT/UTF8
Codec ID/Info : UTF-8 Plain Text
Duration : 1 h 47 min
Bit rate : 102 b/s
Count of elements : 1131
Stream size : 80.8 KiB (0%)
Language : Thai
Default : No
Forced : No
Text #27
ID : 29
Format : UTF-8
Codec ID : S_TEXT/UTF8
Codec ID/Info : UTF-8 Plain Text
Duration : 1 h 47 min
Bit rate : 41 b/s
Count of elements : 1115
Stream size : 32.9 KiB (0%)
Language : Turkish
Default : No
Forced : No
Text #28
ID : 30
Format : UTF-8
Codec ID : S_TEXT/UTF8
Codec ID/Info : UTF-8 Plain Text
Duration : 1 h 47 min
Bit rate : 54 b/s
Count of elements : 1117
Stream size : 43.3 KiB (0%)
Language : Vietnamese
Default : No
Forced : No
Text #29
ID : 31
Format : UTF-8
Codec ID : S_TEXT/UTF8
Codec ID/Info : UTF-8 Plain Text
Duration : 1 h 47 min
Bit rate : 44 b/s
Count of elements : 1132
Stream size : 35.2 KiB (0%)
Title : Simplified
Language : Chinese
Default : No
Forced : No
Text #30
ID : 32
Format : UTF-8
Codec ID : S_TEXT/UTF8
Codec ID/Info : UTF-8 Plain Text
Duration : 1 h 47 min
Bit rate : 45 b/s
Count of elements : 1146
Stream size : 35.8 KiB (0%)
Title : Traditional
Language : Chinese
Default : No
Forced : No

Скриншоты



Показать сообщения:    

Текущее время: 18-Фев 05:21

Часовой пояс: UTC + 3


Вы не можете начинать темы
Вы не можете отвечать на сообщения
Вы не можете редактировать свои сообщения
Вы не можете удалять свои сообщения
Вы не можете голосовать в опросах
Вы не можете прикреплять файлы к сообщениям
Вы не можете скачивать файлы

!ВНИМАНИЕ!
Сайт не предоставляет электронные версии произведений, а занимается лишь коллекционированием и каталогизацией ссылок, присылаемых и публикуемых на форуме нашими читателями. Если вы являетесь правообладателем какого-либо представленного материала и не желаете, чтобы ссылка на него находилась в нашем каталоге, свяжитесь с нами, и мы незамедлительно удалим ее. Файлы для обмена на трекере предоставлены пользователями сайта, и администрация не несет ответственности за их содержание. Просьба не заливать файлы, защищенные авторскими правами, а также файлы нелегального содержания!