[Цитировать]

Информация о фильме
Название: Криминальное чтиво
Оригинальное название: Pulp Fiction
Год выхода: 1994
Жанр: Триллер, драма, криминал, комедия
Режиссер: Квентин Тарантино
В ролях: Джон Траволта, Сэмюэл Л. Джексон, Ума Турман, Брюс Уиллис, Харви Кейтель, Тим Рот, Мария Де Медейрос, Дуэйн Уайтейкер, Розанна Аркетт, Лоуренс Бендер, Стив Бушеми, Бронах Галлахер, Сьюзан Гриффитс, Анджела Джоунс, Пол Калдерон, Эрик Кларк, Фил ЛаМарр, Брэд Паркер, Джозеф Пилато, Аманда Пламмер, Винг Рэймс, Берр Стирс, Кристофер Уокен, Фрэнк Уэйли, Стефен Хибберт, Джулия Суини, Джером Патрик Хобэн, Эрик Штольц, Лора Лавлэйс, Майкл Гилден, Лорелей Лесли, Эмил Ситка, Венесса Валентино, Бренда Хиллхауз, Сью Шер, Линда Кэй, Роберт Рут, Рич Тернер
О фильме:
Двое бандитов Винсент Вега и Джулс Винфилд проводят время в философских беседах в перерыве между разборками и «решением проблем» с должниками своего криминального босса Марселласа Уоллеса. Параллельно разворачивается три истории.
В первой из них Винсент присматривает за женой Марселласа Мией и спасает ее от передозировки наркотиков. Во второй рассказывается о Бутче Кулидже, боксере, нанятом Уоллесом, чтобы сдать бой, но обманувшим его. Третья история объединяет первые две — в кафе парочка молодых неудачливых грабителей — Пампкин и Хани Бани делают попытку ограбления, но Джулс останавливает их.

Страна: США
Продолжительность: 02:34:27
Перевод: Профессиональный (полное дублирование) Miramax
Профессиональный (многоголосый, закадровый) West Video
Авторский одноголосый Д. Пучков
Авторский одноголосый А. Гаврилов
Авторский одноголосый А. Визгунов
Профессиональный (многоголосый, закадровый) ТВ-Центр
Профессиональный (многоголосый, закадровый) НТВ
Профессиональный (многоголосый, закадровый) ОРТ
Профессиональный (многоголосый, закадровый) Премьер Видео Фильм
Авторский одноголосый Ю. Живов
Авторский одноголосый В. Горчаков
Авторский одноголосый А. Кашкин
Кодек: MKV
Качество: BDRemux 1080p
Видео: AVC / 1920x1080 / 16:9 / ~22895 kbps / 23.976 fps
Аудио 1: Russian: AC-3 / 5.1 ch / 48 kHz / 16 bit / 384 kbps - Dub.
Аудио 2: Russian: DTS-HD Master Audio / 5.1 ch / 48 kHz / 24 bit / 3836 kbps - MVO [West Video].
Аудио 3: Russian: DTS-HD Master Audio / 5.1 ch / 48 kHz / 24 bit / 3809 kbps - AVO [Goblin].
Аудио 4: Russian: DTS-HD Master Audio / 5.1 ch / 48 kHz / 24 bit / 3803 kbps - AVO [Gavrilov].
Аудио 5: Russian: DTS-HD Master Audio / 5.1 ch / 48 kHz / 24 bit / 3832 kbps - AVO [Vizgunov].
Аудио 6: Russian: AC-3 / 5.1 ch / 41 kHz / 16 bit / 640 kbps - MVO [TV-Centr].
Аудио 7: Russian: AC-3 / 2.0 ch / 48 kHz / 16 bit / 256 kbps - MVO [HTB].
Аудио 8: Russian: AC-3 / 2.0 ch / 48 kHz / 16 bit / 192 kbps - MVO [OPT].
Аудио 9: Russian: AC-3 / 2.0 ch / 48 kHz / 16 bit / 192 kbps - MVO [Premier].
Аудио 10: Russian: AC-3 / 5.1 ch / 48 kHz / 16 bit / 384 kbps - AVO [Jivov].
Аудио 11: Russian: AC-3 / 2.0 ch / 48 kHz / 16 bit / 192 kbps - AVO [Gorchakov].
Аудио 12: Russian: AC-3 / 2.0 ch / 48 kHz / 16 bit / 192 kbps - AVO [Kashkin].
Аудио 13: Ukrainian: AC-3 / 2.0 ch / 48 kHz / 16 bit / 192 kbps - MVO [UATeam].
Аудио 14: Ukrainian: AC-3 / 2.0 ch / 48 kHz / 16 bit / 192 kbps - MVO [ICTV].
Аудио 15: English: DTS-HD Master Audio / 5.1 ch / 48 kHz / 24 bit / 3900 kbps - Original.
Субтитры: Русские, украинские, английские
Семпл

Скриншоты

MediaInfo

E:TORRNADA Fiction [Remastered] 1994. BDRemux. 1080p..mkv
General
Unique ID : 220266185849694728372626384789194127811 (0xA5B5B96C24BD85A4863F140216EFB9C3)
Complete name : E:TORRNADA Fiction [Remastered] 1994. BDRemux. 1080p..mkv
Format : Matroska
Format version : Version 4 / Version 2
File size : 48.7 GiB
Duration : 2h 34mn
Overall bit rate mode : Variable
Overall bit rate : 45.2 Mbps
Movie name : Pulp Fiction_RollHD
Encoded date : UTC 2015-01-27 16:44:20
Writing application : mkvmerge v6.6.0 ('The Edge Of The In Between') built on Dec 1 2013 17:55:00
Writing library : libebml v1.3.0 + libmatroska v1.4.1
Attachment : Yes / Yes
Video #1
ID : 1
Format : AVC
Format/Info : Advanced Video Codec
Format profile : [email protected]
Format settings, CABAC : Yes
Format settings, ReFrames : 4 frames
Codec ID : V_MPEG4/ISO/AVC
Duration : 2h 34mn
Bit rate mode : Variable
Bit rate : 33.4 Mbps
Maximum bit rate : 37.0 Mbps
Width : 1 920 pixels
Height : 1 080 pixels
Display aspect ratio : 16:9
Frame rate : 23.976 fps
Color space : YUV
Chroma subsampling : 4:2:0
Bit depth : 8 bits
Scan type : Progressive
Bits/(Pixel*Frame) : 0.671
Stream size : 36.0 GiB (74%)
Title : Pulp Fiction 1994 [Remastered]
Language : English
Default : Yes
Forced : No
Audio #2
ID : 2
Format : AC-3
Format/Info : Audio Coding 3
Mode extension : CM (complete main)
Format settings, Endianness : Big
Codec ID : A_AC3
Duration : 2h 34mn
Bit rate mode : Constant
Bit rate : 384 Kbps
Channel(s) : 6 channels
Channel positions : Front: L C R, Side: L R, LFE
Sampling rate : 48.0 KHz
Bit depth : 16 bits
Compression mode : Lossy
Stream size : 424 MiB (1%)
Title : AC-3 / 5.1 ch / 48 kHz / 16 bit / 384 kbps - Dub.
Language : Russian
Default : Yes
Forced : No
Audio #3
ID : 3
Format : DTS
Format/Info : Digital Theater Systems
Format profile : MA / Core
Codec ID : A_DTS
Duration : 2h 34mn
Bit rate mode : Variable
Bit rate : 1 561 Kbps / 1 510 Kbps
Channel(s) : 6 channels
Channel positions : Front: L C R, Side: L R, LFE
Sampling rate : 48.0 KHz
Bit depth : 24 bits
Compression mode : Lossless / Lossy
Title : DTS-HD Master Audio / 5.1 ch / 48 kHz / 24 bit / 3836 kbps - MVO [West Video].
Language : Russian
Default : No
Forced : No
Audio #4
ID : 4
Format : DTS
Format/Info : Digital Theater Systems
Format profile : MA / Core
Codec ID : A_DTS
Duration : 2h 34mn
Bit rate mode : Variable
Bit rate : 1 561 Kbps / 1 510 Kbps
Channel(s) : 6 channels
Channel positions : Front: L C R, Side: L R, LFE
Sampling rate : 48.0 KHz
Bit depth : 24 bits
Compression mode : Lossless / Lossy
Title : DTS-HD Master Audio / 5.1 ch / 48 kHz / 24 bit / 3809 kbps - AVO [Goblin].
Language : Russian
Default : No
Forced : No
Audio #5
ID : 5
Format : DTS
Format/Info : Digital Theater Systems
Format profile : MA / Core
Codec ID : A_DTS
Duration : 2h 34mn
Bit rate mode : Variable
Bit rate : 1 561 Kbps / 1 510 Kbps
Channel(s) : 6 channels
Channel positions : Front: L C R, Side: L R, LFE
Sampling rate : 48.0 KHz
Bit depth : 24 bits
Compression mode : Lossless / Lossy
Title : DTS-HD Master Audio / 5.1 ch / 48 kHz / 24 bit / 3803 kbps - AVO [Gavrilov].
Language : Russian
Default : No
Forced : No
Audio #6
ID : 6
Format : DTS
Format/Info : Digital Theater Systems
Format profile : MA / Core
Codec ID : A_DTS
Duration : 2h 34mn
Bit rate mode : Variable
Bit rate : 1 561 Kbps / 1 510 Kbps
Channel(s) : 6 channels
Channel positions : Front: L C R, Side: L R, LFE
Sampling rate : 48.0 KHz
Bit depth : 24 bits
Compression mode : Lossless / Lossy
Title : DTS-HD Master Audio / 5.1 ch / 48 kHz / 24 bit / 3832 kbps - AVO [Vizgunov].
Language : Russian
Default : No
Forced : No
Audio #7
ID : 7
Format : AC-3
Format/Info : Audio Coding 3
Mode extension : CM (complete main)
Format settings, Endianness : Big
Codec ID : A_AC3
Duration : 2h 34mn
Bit rate mode : Constant
Bit rate : 640 Kbps
Channel(s) : 6 channels
Channel positions : Front: L C R, Side: L R, LFE
Sampling rate : 44.1 KHz
Bit depth : 16 bits
Compression mode : Lossy
Stream size : 707 MiB (1%)
Title : AC-3 / 5.1 ch / 41 kHz / 16 bit / 640 kbps - MVO [TV-Centr].
Language : Russian
Default : No
Forced : No
Audio #8
ID : 8
Format : AC-3
Format/Info : Audio Coding 3
Mode extension : CM (complete main)
Format settings, Endianness : Big
Codec ID : A_AC3
Duration : 2h 34mn
Bit rate mode : Constant
Bit rate : 256 Kbps
Channel(s) : 2 channels
Channel positions : Front: L R
Sampling rate : 48.0 KHz
Bit depth : 16 bits
Compression mode : Lossy
Stream size : 283 MiB (1%)
Title : AC-3 / 2.0 ch / 48 kHz / 16 bit / 256 kbps - MVO [HTB].
Language : Russian
Default : No
Forced : No
Audio #9
ID : 9
Format : AC-3
Format/Info : Audio Coding 3
Mode extension : CM (complete main)
Format settings, Endianness : Big
Codec ID : A_AC3
Duration : 2h 34mn
Bit rate mode : Constant
Bit rate : 192 Kbps
Channel(s) : 2 channels
Channel positions : Front: L R
Sampling rate : 48.0 KHz
Bit depth : 16 bits
Compression mode : Lossy
Stream size : 212 MiB (0%)
Title : AC-3 / 2.0 ch / 48 kHz / 16 bit / 192 kbps - MVO [OPT].
Language : Russian
Default : No
Forced : No
Audio #10
ID : 10
Format : AC-3
Format/Info : Audio Coding 3
Mode extension : CM (complete main)
Format settings, Endianness : Big
Codec ID : A_AC3
Duration : 2h 34mn
Bit rate mode : Constant
Bit rate : 192 Kbps
Channel(s) : 2 channels
Channel positions : Front: L R
Sampling rate : 48.0 KHz
Bit depth : 16 bits
Compression mode : Lossy
Stream size : 212 MiB (0%)
Title : AC-3 / 2.0 ch / 48 kHz / 16 bit / 192 kbps - MVO [Premier].
Language : Russian
Default : No
Forced : No
Audio #11
ID : 11
Format : AC-3
Format/Info : Audio Coding 3
Mode extension : CM (complete main)
Format settings, Endianness : Big
Codec ID : A_AC3
Duration : 2h 34mn
Bit rate mode : Constant
Bit rate : 384 Kbps
Channel(s) : 6 channels
Channel positions : Front: L C R, Side: L R, LFE
Sampling rate : 48.0 KHz
Bit depth : 16 bits
Compression mode : Lossy
Stream size : 424 MiB (1%)
Title : AC-3 / 5.1 ch / 48 kHz / 16 bit / 384 kbps - AVO [Jivov].
Language : Russian
Default : No
Forced : No
Audio #12
ID : 12
Format : AC-3
Format/Info : Audio Coding 3
Mode extension : CM (complete main)
Format settings, Endianness : Big
Codec ID : A_AC3
Duration : 2h 34mn
Bit rate mode : Constant
Bit rate : 192 Kbps
Channel(s) : 2 channels
Channel positions : Front: L R
Sampling rate : 48.0 KHz
Bit depth : 16 bits
Compression mode : Lossy
Stream size : 212 MiB (0%)
Title : AC-3 / 2.0 ch / 48 kHz / 16 bit / 192 kbps - AVO [Gorchakov].
Language : Russian
Default : No
Forced : No
Audio #13
ID : 13
Format : AC-3
Format/Info : Audio Coding 3
Mode extension : CM (complete main)
Format settings, Endianness : Big
Codec ID : A_AC3
Duration : 2h 34mn
Bit rate mode : Constant
Bit rate : 448 Kbps
Channel(s) : 2 channels
Channel positions : Front: L R
Sampling rate : 48.0 KHz
Bit depth : 16 bits
Compression mode : Lossy
Stream size : 495 MiB (1%)
Title : AC-3 / 2.0 ch / 48 kHz / 16 bit / 192 kbps - AVO [Kashkin].
Language : Russian
Default : No
Forced : No
Audio #14
ID : 14
Format : AC-3
Format/Info : Audio Coding 3
Mode extension : CM (complete main)
Format settings, Endianness : Big
Codec ID : A_AC3
Duration : 2h 34mn
Bit rate mode : Constant
Bit rate : 192 Kbps
Channel(s) : 2 channels
Channel positions : Front: L R
Sampling rate : 48.0 KHz
Bit depth : 16 bits
Compression mode : Lossy
Stream size : 212 MiB (0%)
Title : AC-3 / 2.0 ch / 48 kHz / 16 bit / 192 kbps - MVO [UATeam].
Language : Ukrainian
Default : No
Forced : No
Audio #15
ID : 15
Format : AC-3
Format/Info : Audio Coding 3
Mode extension : CM (complete main)
Format settings, Endianness : Big
Codec ID : A_AC3
Duration : 2h 34mn
Bit rate mode : Constant
Bit rate : 192 Kbps
Channel(s) : 2 channels
Channel positions : Front: L R
Sampling rate : 48.0 KHz
Bit depth : 16 bits
Compression mode : Lossy
Stream size : 212 MiB (0%)
Title : AC-3 / 2.0 ch / 48 kHz / 16 bit / 192 kbps - MVO [ICTV].
Language : Ukrainian
Default : No
Forced : No
Audio #16
ID : 16
Format : DTS
Format/Info : Digital Theater Systems
Format profile : MA / Core
Codec ID : A_DTS
Duration : 2h 34mn
Bit rate mode : Variable
Bit rate : 1 576 Kbps / 1 510 Kbps
Channel(s) : 6 channels
Channel positions : Front: L C R, Side: L R, LFE
Sampling rate : 48.0 KHz
Bit depth : 24 bits
Compression mode : Lossless / Lossy
Title : DTS-HD Master Audio / 5.1 ch / 48 kHz / 24 bit / 3900 kbps - Original.
Language : English
Default : No
Forced : No
Text #17
ID : 17
Format : UTF-8
Codec ID : S_TEXT/UTF8
Codec ID/Info : UTF-8 Plain Text
Title : R5
Language : Russian
Default : No
Forced : No
Text #18
ID : 18
Format : UTF-8
Codec ID : S_TEXT/UTF8
Codec ID/Info : UTF-8 Plain Text
Title : Пучков
Language : Russian
Default : No
Forced : No
Text #19
ID : 19
Format : UTF-8
Codec ID : S_TEXT/UTF8
Codec ID/Info : UTF-8 Plain Text
Language : Russian
Default : No
Forced : No
Text #20
ID : 20
Format : UTF-8
Codec ID : S_TEXT/UTF8
Codec ID/Info : UTF-8 Plain Text
Language : Russian
Default : No
Forced : No
Text #21
ID : 21
Format : UTF-8
Codec ID : S_TEXT/UTF8
Codec ID/Info : UTF-8 Plain Text
Language : Russian
Default : No
Forced : No
Text #22
ID : 22
Format : UTF-8
Codec ID : S_TEXT/UTF8
Codec ID/Info : UTF-8 Plain Text
Title : R5
Language : Ukrainian
Default : No
Forced : No
Text #23
ID : 23
Format : UTF-8
Codec ID : S_TEXT/UTF8
Codec ID/Info : UTF-8 Plain Text
Language : Ukrainian
Default : No
Forced : No
Text #24
ID : 24
Format : UTF-8
Codec ID : S_TEXT/UTF8
Codec ID/Info : UTF-8 Plain Text
Language : English
Default : No
Forced : No

Топик был перенесен из форума Боевик / Триллер в форум Фильмы
killer110289


Показать сообщения:    

Текущее время: 15-Ноя 10:12

Часовой пояс: UTC + 3


Вы не можете начинать темы
Вы не можете отвечать на сообщения
Вы не можете редактировать свои сообщения
Вы не можете удалять свои сообщения
Вы не можете голосовать в опросах
Вы не можете прикреплять файлы к сообщениям
Вы не можете скачивать файлы

!ВНИМАНИЕ!
Сайт не предоставляет электронные версии произведений, а занимается лишь коллекционированием и каталогизацией ссылок, присылаемых и публикуемых на форуме нашими читателями. Если вы являетесь правообладателем какого-либо представленного материала и не желаете, чтобы ссылка на него находилась в нашем каталоге, свяжитесь с нами, и мы незамедлительно удалим ее. Файлы для обмена на трекере предоставлены пользователями сайта, и администрация не несет ответственности за их содержание. Просьба не заливать файлы, защищенные авторскими правами, а также файлы нелегального содержания!