[Цитировать]

Троя [Расширенная версия] / Troy [Unrated]
«Эпилог всегда интереснее пролога»
Перевод: Профессиональный (полное дублирование) [Лицензия]
Cубтитры: отсутствуют
Формат: HDRip-AVC, MKV, H.264, AC3
Страна: США, Мальта, Великобритания
Режиссер: Вольфганг Петерсен
Жанр: исторический, драма, мелодрама
Продолжительность: 03:16:03
Год выпуска: 2004
В ролях: Брэд Питт, Эрик Бана, Шон Бин, Брайан Кокс, Брендан Глисон, Дайан Крюгер, Орландо Блум, Джулиан Гловер, Натан Джонс, Адони Маропис, Джейкоб Смит, Джон Шрэпнел
Описание: 1193 год до нашей эры. Парис украл прекрасную Елену, жену царя Спарты Менелая. За честь Менелая вступается его брат — царь Агамемнон. Его армия под предводительством Ахиллеса подошла к Трое и взяла город в кровавую осаду, длившуюся долгих десять лет… Два мира будут воевать за честь и власть. Тысячи умрут за славу. И за любовь нация сгорит дотла.
__________ __________
Видео: 960x400 (2,40:1), 23,976 fps, AVC (H.264), [email protected] ~ 1204 kbps avg, 0.131 bit/pixel
Аудио: 48 kHz, AC3 Dolby Digital, 3/2 (L,C,R,l,r) + LFE ch, ~384 kbps
Доп. информация: На расширенные места вставлен перевод от Киномании.

Интересные факты

Перед съёмками фильма исполнитель роли Ахиллеса Брэд Питт шесть месяцев тренировал владение мечом. В результате он травмировал ахиллово сухожилие, из-за чего съёмки пришлось перенести на несколько недель.
Ради участия в проекте режиссер Вольфганг Петерсен покинул намечавшийся блокбастер «Бэтмен против Супермена», а Брэд Питт отказался от съемок в «Фонтане» Даррена Аронофски.
Война, разразившаяся в Ираке в 2003 году, заставила продюсеров выбирать более комфортабельное место для съемок. По плану большая часть кинопроизводства должна была пройти в Марокко, однако в конечном итоге местами проведения съемок были выбраны Мексика и Мальта.
Несчастье постигло одного из участников съемок. Культурист Джордж Камиллери, сломал ногу во время съемок одной из батальных сцен. На следующий день он был прооперирован, но вскоре возникли осложнения, и 17 июня 2003 года Джордж скончался.
Продюсеры предлагали стать режиссёром «Трои» Терри Гиллиаму, однако тот, прочитав пять страниц сценария, отказался.
До съемок в фильме Эрик Бана ни разу не садился на лошадь.
Во время съемок Питт вынужден был бросить курить. По его признанию, это было самым мучительным, что ему пришлось пережить.
Узнав о проекте «Трои», турецкое правительство очень заинтересовалось. Министерство Культуры и Туризма Турции предложило съёмочной группе снимать фильм в Канаккале, где находятся развалины реальной Трои, но Уорнер Бразерз отказалась. Тогда турки предложили хотя бы премьеру фильма провести в реальной Трое. Но премьера была проведена в Берлине, где хранится золото Шлимана, вывезенное из Трои.
Вольфганг Петерсен изначально хотел обойтись не только без богов, но и без Елены. Он считал, что боги просто утяжеляют сюжет, для которого они, в общем-то, несущественны, а для роли Елены он не сможет подобрать актрису, которая бы отвечала ожиданиям зрителей. Но студия настояла на том, чтобы Елена была в кадре, и тогда Петерсен выбрал на эту роль малоизвестную актрису.
Гарретт Хедлунд получил роль Патрокла через месяц после того, как приехал в Лос-Анджелес, чтобы делать актёрскую карьеру.
Существует режиссерская версия фильма, которая длится 196 минут.
Фильм снимался в прибрежных районах Мексики. Два специально нанятых биолога пристально следили за тем, чтобы воюющие на пляже греки и троянцы не перетоптали яйца морских черепах.
Дайана Крюгер для своей роли набрала 7 килограмм.

Награды и номинации

Сатурн, 2008 год
Номинации (1):
Лучшее специальное DVD-издание — «Director's Cut: Ultimate Collector's Edition»
Оскар, 2005 год
Номинации (1):
Лучшие костюмы
Премия канала «MTV», 2005 год
Номинации (2):
Лучшая мужская роль (Брэд Питт)
Лучшая драка

MediaInfo

Общее
Уникальный идентификатор : 199507716417313187224513756483903570875 (0x9617C9DC5838DBAE9E4DD6B1AB8043BB)
Полное имя : D:\HD\1Троя FullHD (1) (1).mkv
Формат : Matroska
Размер файла : 2,18 Гбайт
Продолжительность : 3 ч. 16 м.
Общий поток : 1590 Кбит/сек
Название фильма : Rip by S.T.A.L.K.E.R.2
Дата кодирования : UTC 2012-08-16 16:57:07
Программа кодирования : mkvmerge v4.7.0 ('Just Like You Imagined') сборка от Apr 21 2011 01:13:14
Библиотека кодирования : libebml v1.2.0 + libmatroska v1.1.0
Видео
Идентификатор : 1
Формат : AVC
Формат/Информация : Advanced Video Codec
Профиль формата : [email protected]
Параметр CABAC формата : Да
Параметр ReFrames формата : 10 кадры
Идентификатор кодека : V_MPEG4/ISO/AVC
Продолжительность : 3 ч. 16 м.
Битрейт : 1204 Кбит/сек
Ширина : 960 пикс.
Высота : 400 пикс.
Соотношение сторон : 2,40:1
Частота кадров : 23,976 кадр/сек
Цветовое пространство : YUV
Подвыборка цветности : 4:2:0
Битовая глубина : 8 бит
Тип развёртки : Прогрессивная
Бит/(Пиксели*Кадры) : 0.131
Размер потока : 1,61 Гбайт (74%)
Библиотека кодирования : x264 core 125 r2200 999b753
Настройки программы : cabac=1 / ref=10 / deblock=1:-3:-2 / analyse=0x3:0x113 / me=umh / subme=10 / psy=1 / psy_rd=1.00:0.00 / mixed_ref=1 / me_range=32 / chroma_me=1 / trellis=2 / 8x8dct=1 / cqm=0 / deadzone=21,11 / fast_pskip=0 / chroma_qp_offset=-2 / threads=3 / lookahead_threads=1 / sliced_threads=0 / nr=0 / decimate=0 / interlaced=0 / bluray_compat=0 / constrained_intra=0 / bframes=12 / b_pyramid=2 / b_adapt=2 / b_bias=0 / direct=3 / weightb=1 / open_gop=0 / weightp=2 / keyint=240 / keyint_min=23 / scenecut=40 / intra_refresh=0 / rc_lookahead=40 / rc=2pass / mbtree=1 / bitrate=1204 / ratetol=1.0 / qcomp=0.60 / qpmin=10 / qpmax=51 / qpstep=4 / cplxblur=20.0 / qblur=0.5 / vbv_maxrate=50000 / vbv_bufsize=50000 / nal_hrd=none / ip_ratio=1.40 / aq=1:1.00
Язык : Russian
Аудио
Идентификатор : 2
Формат : AC-3
Формат/Информация : Audio Coding 3
Расширение режима : CM (complete main)
Идентификатор кодека : A_AC3
Продолжительность : 3 ч. 16 м.
Вид битрейта : Постоянный
Битрейт : 384 Кбит/сек
Канал(ы) : 6 канала(ов)
Расположение каналов : Front: L C R, Side: L R, LFE
Частота : 48,0 КГц
Битовая глубина : 16 бит
Метод сжатия : С потерями
Размер потока : 538 Мбайт (24%)
Язык : Russian

Показать скриншоты








Не жилим спасибо. Не забываем голосовать за трекер!!!


Показать сообщения:    

Текущее время: 22-Май 09:00

Часовой пояс: UTC + 3


Вы не можете начинать темы
Вы не можете отвечать на сообщения
Вы не можете редактировать свои сообщения
Вы не можете удалять свои сообщения
Вы не можете голосовать в опросах
Вы не можете прикреплять файлы к сообщениям
Вы не можете скачивать файлы

!ВНИМАНИЕ!
Сайт не предоставляет электронные версии произведений, а занимается лишь коллекционированием и каталогизацией ссылок, присылаемых и публикуемых на форуме нашими читателями. Если вы являетесь правообладателем какого-либо представленного материала и не желаете, чтобы ссылка на него находилась в нашем каталоге, свяжитесь с нами, и мы незамедлительно удалим ее. Файлы для обмена на трекере предоставлены пользователями сайта, и администрация не несет ответственности за их содержание. Просьба не заливать файлы, защищенные авторскими правами, а также файлы нелегального содержания!