[Цитировать]

Динозавр Название: Динозавр
Год выпуска: 2018
Жанр: Криминал, мелодрама
Режиссёр: Евгений Серов, Всеволод Аравин, Олег Компасов
В ролях: Андрей Смирнов, Александр Панкратов-Чёрный, Евгений Миллер, Анна Васильева, Максим Литовченко, Михаил Евланов, Ольга Тумайкина, Илья Любимов, Сергей Епишев, Александр Берда, Илья Ильин, Роман Полянский, Александра Мареева, Ольга Филиппова, Юрий Чурсин, Елена Сафонова, Геннадий Яковлев, Сергей Жигунов, Валерий Новиков, Александр Вдовин, Юрий Сысоев, Светлана Немоляева, Галина Петрова, Борис Смолкин, Борис Невзоров, Иван Лакшин, Борис Токарев, Сергей Сосновский, Михаил Горский
Описание: Престарелый криминальный авторитет Семен Тимофеевич Бабушкин, о чьем воровском таланте в свое время слагали легенды, последние 35 лет Семен Тимофеевич не выходил из тюрьмы, предпочитая ее свободе, где у него не осталось ни друзей, ни родных. Но однажды Бабушкин получает письмо, из которого узнает, что у него, оказывается, все-таки есть на воле кровиночка, сын Слава. По иронии судьбы, младший Бабушкин служит следователем в органах, но в настоящее время нуждается в помощи - его серьезно подставили, и под угрозой оказалась не только его жизнь, но и безопасность его дочери. Тогда благородный бандит принимается налаживать свои старые связи и навыки, чтобы вытащить новоявленную семью из беды.
Производство: Продюсерский центр Сергея Жигунова
Продолжительность: 00:46:00
Субтитры: нет
Качество: WEBRip
Формат: AVI
Видео кодек: XviD
Аудио кодек: AC3
Видео: 720x400 (16:9), 25.000 fps, XviD, 1488 Kbps, 0.20 bits/pixel
Аудио: 48 kHz, AC3 Dolby Digital, 2 ch, 192 Kbps

MI

General
Format : AVI
Format/Info : Audio Video Interleave
File size : 570 MiB
Duration : 47mn 10s
Overall bit rate : 1 690 Kbps
Writing application : VirtualDubMod 1.5.10.3 | www.virtualdub-fr.org || (build 2550/release)
Writing library : VirtualDubMod build 2550/release
Video
ID : 0
Format : MPEG-4 Visual
Format profile : Advanced [email protected]
Format settings, BVOP : 1
Format settings, QPel : No
Format settings, GMC : No warppoints
Format settings, Matrix : Custom
Codec ID : XVID
Codec ID/Hint : XviD
Duration : 47mn 10s
Bit rate : 1 488 Kbps
Width : 720 pixels
Height : 400 pixels
Display aspect ratio : 16:9
Frame rate : 25.000 fps
Color space : YUV
Chroma subsampling : 4:2:0
Bit depth : 8 bits
Scan type : Progressive
Compression mode : Lossy
Bits/(Pixel*Frame) : 0.207
Stream size : 502 MiB (88%)
Writing library : XviD 73
Audio
ID : 1
Format : AC-3
Format/Info : Audio Coding 3
Mode extension : CM (complete main)
Format settings, Endianness : Big
Codec ID : 2000
Duration : 47mn 10s
Bit rate mode : Constant
Bit rate : 192 Kbps
Channel(s) : 2 channels
Channel positions : Front: L R
Sampling rate : 48.0 KHz
Bit depth : 16 bits
Compression mode : Lossy
Stream size : 64.8 MiB (11%)
Alignment : Split accross interleaves
Interleave, duration : 40 ms (1.00 video frame)
Interleave, preload duration : 500 ms

[Цитировать]

Сериалы смотрю редко; и по времени не всегда получается, и вообще, не люблю "длинномер" растянутый во времени. А этот заинтриговал при просмотре рекламных трейлеров. Спасибо!

[Цитировать]

до этого сериала очередь просмотра не дошла, ab


Показать сообщения:    

Текущее время: 21-Окт 04:24

Часовой пояс: UTC + 3


Вы не можете начинать темы
Вы не можете отвечать на сообщения
Вы не можете редактировать свои сообщения
Вы не можете удалять свои сообщения
Вы не можете голосовать в опросах
Вы не можете прикреплять файлы к сообщениям
Вы не можете скачивать файлы

!ВНИМАНИЕ!
Сайт не предоставляет электронные версии произведений, а занимается лишь коллекционированием и каталогизацией ссылок, присылаемых и публикуемых на форуме нашими читателями. Если вы являетесь правообладателем какого-либо представленного материала и не желаете, чтобы ссылка на него находилась в нашем каталоге, свяжитесь с нами, и мы незамедлительно удалим ее. Файлы для обмена на трекере предоставлены пользователями сайта, и администрация не несет ответственности за их содержание. Просьба не заливать файлы, защищенные авторскими правами, а также файлы нелегального содержания!